BILL36
隐世仙人♂

[2024] [美国] [剧情] [WEB-4K] 皇家棕榈[第08集][简繁英字幕].Palm.Royale.S01.2024.2160p.ATVP.WEB-DL.DDP5.1.Atmos.H.265-Lelv

-->

完整标题:皇家棕榈[第08集][简繁英字幕].Palm.Royale.S01.2024.2160p.ATVP.WEB-DL.DDP5.1.Atmos.H.265-LelveTV 7.58GB



◎标  题 皇家棕榈
◎译  名 美国派夫人 / 美国派夫妇 / Mr. and Mrs. American Pie / Mrs. American Pie
◎片  名 Palm Royale
◎年  代 2024
◎产  地 美国
◎类  别 剧情
◎语  言 英语
◎IMDb链接 https://www.imdb.com/title/tt8888540/
◎豆瓣链接 https://movie.douban.com/subject/35917843/
◎导  演 泰特·泰勒 Tate Taylor
      爱比·西尔维亚 Abe Sylvia
      克莱尔·斯坎伦 Claire Scanlon
      斯蒂芬妮·莱恩 Stephanie Laing
◎编  剧 爱比·西尔维亚 Abe Sylvia
      凯利·哈钦森 Kelly Hutchinson
      莎莉·霍尔曼 Sheri Holman
      朱丽叶·麦克丹尼尔 Juliet McDaniel
◎演  员 克里斯汀·韦格 Kristen Wiig
      瑞奇·马丁 Ricky Martin
      乔什·卢卡斯 Josh Lucas
      莱丝莉·比伯 Leslie Bibb
      安珀·查尔达·罗宾森 Amber Chardae Robinson
      明迪·科恩 Mindy Cohn
      茱莉亚·达菲 Julia Duffy
      凯雅·基伯 Kaia Gerber
      劳拉·邓恩 Laura Dern
      艾莉森·珍妮 Allison Janney
      布鲁斯·邓恩 Bruce Dern
      卡罗尔·博内特 Carol Burnett
      多米尼克·伯吉斯 Dominic Burgess
      约旦·布里奇斯 Jordan Bridges
      里克·考斯奈特 Rick Cosnett
      克劳迪娅·费里 Claudia Ferri
      杰森·卡内拉 Jason Canela
      贝利纳·洛根 Bellina Logan
      Jason Patrick Mills
      Wesley Mann
      罗伯托·桑切斯 Roberto 'Sanz' Sanchez
      克里珊·伊斯特伍德 Chrisanne Eastwood
      Crosby Fitzgerald
      尼克·德拉戈 Nick Drago

◎简  介
    本剧改编自朱丽叶·麦克丹尼尔的小说,设定在1970年代早期,讲述玛克辛·西蒙斯(克里斯汀·韦格 饰)试图在美国最高档的餐桌——棕榈滩上流社会中占据一席之地。当玛克辛试图跨越富人和穷人之间那道不可逾越的界限时,这部剧提出了至今仍然让人困惑的问题:谁能在上流社会占有一席之地?你该如何获得一席之地?为了达到目标,你会牺牲什么?

部分资源为软字幕,移动端推荐播放器:MxPlayer,nPlayer,infuse ,其他播放器请自行尝试。

部分资源为软字幕,电脑端推荐播放器:PotPlayer,完美解码,KMPLAYER,其他播放器请自行尝试。

下载端推荐纯BT下载软件:qBittorrent,Bitcomet,uTorrent ,其他下载软件请自行尝试。不支持吸血迅雷。

##### MediaInfo ######
General
Unique ID : 315648898913600208431392165194822887085 (0xED77C4421060883CA7916943AE0CA6AD)
Complete name : Palm.Royale.S01E08.2024.2160p.ATVP.WEB-DL.DDP5.1.Atmos.H.265-LelveTV.mkv
Duration : 50 min 49 s
Overall bit rate : 21.3 Mb/s

Video
ID : 1
Format : HEVC
Format/Info : High Efficiency Video Coding
Format profile : Main 10@L5@High
Codec ID : V_MPEGH/ISO/HEVC
Duration : 50 min 49 s
Bit rate : 20.6 Mb/s
Width : 3 840 pixels
Height : 1 634 pixels
Display aspect ratio : 2.35:1
Frame rate mode : Constant
Frame rate : 23.976 (24000/1001) FPS
Color space : YUV
Chroma subsampling : 4:2:0
Bit depth : 10 bits
Bits/(Pixel*Frame) : 0.137
Stream size : 7.30 GiB (96%)
Default : Yes
Forced : No
Color range : Limited
Color primaries : BT.709
Transfer characteristics : BT.709
Matrix coefficients : BT.709

Audio
ID : 2
Format : E-AC-3 JOC
Format/Info : Enhanced AC-3 with Joint Object Coding
Commercial name : Dolby Digital Plus with Dolby Atmos
Codec ID : A_EAC3
Duration : 50 min 49 s
Bit rate mode : Constant
Bit rate : 768 kb/s
Channel(s) : 6 channels
Channel layout : L R C LFE Ls Rs
Sampling rate : 48.0 kHz
Frame rate : 31.250 FPS (1536 SPF)
Compression mode : Lossy
Stream size : 279 MiB (4%)
Title : English [Dolby Digital Plus with Dolby Atmos 5.1]
Language : English
Service kind : Complete Main
Default : Yes
Forced : No
Complexity index : 16
Number of dynamic objects : 15
Bed channel count : 1 channel
Bed channel configuration : LFE

Text #1
ID : 3
Format : UTF-8
Codec ID : S_TEXT/UTF8
Codec ID/Info : UTF-8 Plain Text
Duration : 48 min 37 s
Bit rate : 73 b/s
Frame rate : 0.271 FPS
Count of elements : 790
Stream size : 26.3 KiB (0%)
Title : 中文(简体)
Language : Chinese
Default : Yes
Forced : No

Text #2
ID : 4
Format : UTF-8
Codec ID : S_TEXT/UTF8
Codec ID/Info : UTF-8 Plain Text
Duration : 48 min 37 s
Bit rate : 70 b/s
Frame rate : 0.271 FPS
Count of elements : 791
Stream size : 25.2 KiB (0%)
Title : 中文 (繁體)
Language : Chinese
Default : No
Forced : No

Text #3
ID : 5
Format : UTF-8
Codec ID : S_TEXT/UTF8
Codec ID/Info : UTF-8 Plain Text
Duration : 48 min 3 s
Bit rate : 77 b/s
Frame rate : 0.273 FPS
Count of elements : 786
Stream size : 27.4 KiB (0%)
Title : English
Language : English
Default : No
Forced : No

Text #4
ID : 6
Format : UTF-8
Codec ID : S_TEXT/UTF8
Codec ID/Info : UTF-8 Plain Text
Duration : 48 min 37 s
Bit rate : 67 b/s
Frame rate : 0.271 FPS
Count of elements : 791
Stream size : 23.9 KiB (0%)
Title : 粵語 (繁體)
Language : Chinese
Default : No
Forced : No

Text #5
ID : 7
Format : UTF-8
Codec ID : S_TEXT/UTF8
Codec ID/Info : UTF-8 Plain Text
Duration : 48 min 37 s
Bit rate : 109 b/s
Frame rate : 0.270 FPS
Count of elements : 787
Stream size : 39.1 KiB (0%)
Title : ???????
Language : Arabic
Default : No
Forced : No

Text #6
ID : 8
Format : UTF-8
Codec ID : S_TEXT/UTF8
Codec ID/Info : UTF-8 Plain Text
Duration : 48 min 37 s
Bit rate : 111 b/s
Frame rate : 0.212 FPS
Count of elements : 619
Stream size : 39.7 KiB (0%)
Title : Български
Language : Bulgarian
Default : No
Forced : No

Text #7
ID : 9
Format : UTF-8
Codec ID : S_TEXT/UTF8
Codec ID/Info : UTF-8 Plain Text
Duration : 48 min 37 s
Bit rate : 69 b/s
Frame rate : 0.257 FPS
Count of elements : 749
Stream size : 24.9 KiB (0%)
Title : ?e?tina
Language : Czech
Default : No
Forced : No

Text #8
ID : 10
Format : UTF-8
Codec ID : S_TEXT/UTF8
Codec ID/Info : UTF-8 Plain Text
Duration : 48 min 3 s
Bit rate : 70 b/s
Frame rate : 0.221 FPS
Count of elements : 637
Stream size : 24.7 KiB (0%)
Title : Dansk
Language : Danish
Default : No
Forced : No

Text #9
ID : 11
Format : UTF-8
Codec ID : S_TEXT/UTF8
Codec ID/Info : UTF-8 Plain Text
Duration : 48 min 37 s
Bit rate : 88 b/s
Frame rate : 0.274 FPS
Count of elements : 798
Stream size : 31.7 KiB (0%)
Title : Deutsch
Language : German
Default : No
Forced : No

Text #10
ID : 12
Format : UTF-8
Codec ID : S_TEXT/UTF8
Codec ID/Info : UTF-8 Plain Text
Duration : 48 min 37 s
Bit rate : 126 b/s
Frame rate : 0.263 FPS
Count of elements : 766
Stream size : 45.1 KiB (0%)
Title : Ελληνικ?
Language : Greek
Default : No
Forced : No

Text #11
ID : 13
Format : UTF-8
Codec ID : S_TEXT/UTF8
Codec ID/Info : UTF-8 Plain Text
Duration : 48 min 37 s
Bit rate : 74 b/s
Frame rate : 0.271 FPS
Count of elements : 792
Stream size : 26.7 KiB (0%)
Title : Espa?ol (Latinoamérica)
Language : Spanish
Default : No
Forced : No

Text #12
ID : 14
Format : UTF-8
Codec ID : S_TEXT/UTF8
Codec ID/Info : UTF-8 Plain Text
Duration : 48 min 37 s
Bit rate : 77 b/s
Frame rate : 0.268 FPS
Count of elements : 782
Stream size : 27.5 KiB (0%)
Title : Espa?ol (Espa?a)
Language : Spanish
Default : No
Forced : No

Text #13
ID : 15
Format : UTF-8
Codec ID : S_TEXT/UTF8
Codec ID/Info : UTF-8 Plain Text
Duration : 48 min 37 s
Bit rate : 74 b/s
Frame rate : 0.264 FPS
Count of elements : 769
Stream size : 26.4 KiB (0%)
Title : Eesti
Language : Estonian
Default : No
Forced : No

Text #14
ID : 16
Format : UTF-8
Codec ID : S_TEXT/UTF8
Codec ID/Info : UTF-8 Plain Text
Duration : 48 min 37 s
Bit rate : 73 b/s
Frame rate : 0.246 FPS
Count of elements : 719
Stream size : 26.1 KiB (0%)
Title : Suomi
Language : Finnish
Default : No
Forced : No

Text #15
ID : 17
Format : UTF-8
Codec ID : S_TEXT/UTF8
Codec ID/Info : UTF-8 Plain Text
Duration : 48 min 37 s
Bit rate : 71 b/s
Frame rate : 0.278 FPS
Count of elements : 812
Stream size : 25.5 KiB (0%)
Title : Fran?ais (Canada)
Language : French
Default : No
Forced : No

Text #16
ID : 18
Format : UTF-8
Codec ID : S_TEXT/UTF8
Codec ID/Info : UTF-8 Plain Text
Duration : 48 min 37 s
Bit rate : 71 b/s
Frame rate : 0.278 FPS
Count of elements : 811
Stream size : 25.5 KiB (0%)
Title : Fran?ais (France)
Language : French
Default : No
Forced : No

Text #17
ID : 19
Format : UTF-8
Codec ID : S_TEXT/UTF8
Codec ID/Info : UTF-8 Plain Text
Duration : 48 min 37 s
Bit rate : 105 b/s
Frame rate : 0.270 FPS
Count of elements : 788
Stream size : 37.7 KiB (0%)
Title : ?????
Language : Hebrew
Default : No
Forced : No

Text #18
ID : 20
Format : UTF-8
Codec ID : S_TEXT/UTF8
Codec ID/Info : UTF-8 Plain Text
Duration : 48 min 37 s
Bit rate : 212 b/s
Frame rate : 0.271 FPS
Count of elements : 791
Stream size : 75.7 KiB (0%)
Title : ??????
Language : Hindi
Default : No
Forced : No

Text #19
ID : 21
Format : UTF-8
Codec ID : S_TEXT/UTF8
Codec ID/Info : UTF-8 Plain Text
Duration : 48 min 37 s
Bit rate : 72 b/s
Frame rate : 0.263 FPS
Count of elements : 767
Stream size : 26.0 KiB (0%)
Title : Magyar
Language : Hungarian
Default : No
Forced : No

Text #20
ID : 22
Format : UTF-8
Codec ID : S_TEXT/UTF8
Codec ID/Info : UTF-8 Plain Text
Duration : 48 min 37 s
Bit rate : 80 b/s
Frame rate : 0.270 FPS
Count of elements : 788
Stream size : 28.8 KiB (0%)
Title : Bahasa Indonesia
Language : Indonesian
Default : No
Forced : No

Text #21
ID : 23
Format : UTF-8
Codec ID : S_TEXT/UTF8
Codec ID/Info : UTF-8 Plain Text
Duration : 48 min 37 s
Bit rate : 82 b/s
Frame rate : 0.275 FPS
Count of elements : 801
Stream size : 29.5 KiB (0%)
Title : Italiano
Language : Italian
Default : No
Forced : No

Text #22
ID : 24
Format : UTF-8
Codec ID : S_TEXT/UTF8
Codec ID/Info : UTF-8 Plain Text
Duration : 48 min 37 s
Bit rate : 62 b/s
Frame rate : 0.255 FPS
Count of elements : 744
Stream size : 22.3 KiB (0%)
Title : 日本語
Language : Japanese
Default : No
Forced : No

Text #23
ID : 25
Format : UTF-8
Codec ID : S_TEXT/UTF8
Codec ID/Info : UTF-8 Plain Text
Duration : 48 min 37 s
Bit rate : 92 b/s
Frame rate : 0.271 FPS
Count of elements : 791
Stream size : 33.0 KiB (0%)
Title : ???
Language : Korean
Default : No
Forced : No

Text #24
ID : 26
Format : UTF-8
Codec ID : S_TEXT/UTF8
Codec ID/Info : UTF-8 Plain Text
Duration : 48 min 33 s
Bit rate : 78 b/s
Frame rate : 0.270 FPS
Count of elements : 786
Stream size : 27.9 KiB (0%)
Title : Lietuvi?
Language : Lithuanian
Default : No
Forced : No

Text #25
ID : 27
Format : UTF-8
Codec ID : S_TEXT/UTF8
Codec ID/Info : UTF-8 Plain Text
Duration : 48 min 37 s
Bit rate : 79 b/s
Frame rate : 0.267 FPS
Count of elements : 778
Stream size : 28.3 KiB (0%)
Title : Latvie?u
Language : Latvian
Default : No
Forced : No

Text #26
ID : 28
Format : UTF-8
Codec ID : S_TEXT/UTF8
Codec ID/Info : UTF-8 Plain Text
Duration : 48 min 37 s
Bit rate : 78 b/s
Frame rate : 0.270 FPS
Count of elements : 787
Stream size : 27.8 KiB (0%)
Title : Bahasa Malaysia
Language : Malay
Default : No
Forced : No

Text #27
ID : 29
Format : UTF-8
Codec ID : S_TEXT/UTF8
Codec ID/Info : UTF-8 Plain Text
Duration : 48 min 37 s
Bit rate : 68 b/s
Frame rate : 0.234 FPS
Count of elements : 684
Stream size : 24.3 KiB (0%)
Title : Nederlands
Language : Dutch
Default : No
Forced : No

Text #28
ID : 30
Format : UTF-8
Codec ID : S_TEXT/UTF8
Codec ID/Info : UTF-8 Plain Text
Duration : 48 min 37 s
Bit rate : 74 b/s
Frame rate : 0.218 FPS
Count of elements : 635
Stream size : 26.5 KiB (0%)
Title : Norsk
Language : Norwegian
Default : No
Forced : No

Text #29
ID : 31
Format : UTF-8
Codec ID : S_TEXT/UTF8
Codec ID/Info : UTF-8 Plain Text
Duration : 48 min 37 s
Bit rate : 76 b/s
Frame rate : 0.268 FPS
Count of elements : 781
Stream size : 27.3 KiB (0%)
Title : Polski
Language : Polish
Default : No
Forced : No

Text #30
ID : 32
Format : UTF-8
Codec ID : S_TEXT/UTF8
Codec ID/Info : UTF-8 Plain Text
Duration : 48 min 37 s
Bit rate : 78 b/s
Frame rate : 0.268 FPS
Count of elements : 783
Stream size : 28.0 KiB (0%)
Title : Português
Language : Portuguese
Default : No
Forced : No

Text #31
ID : 33
Format : UTF-8
Codec ID : S_TEXT/UTF8
Codec ID/Info : UTF-8 Plain Text
Duration : 48 min 37 s
Bit rate : 68 b/s
Frame rate : 0.262 FPS
Count of elements : 765
Stream size : 24.5 KiB (0%)
Title : Português (Brasil)
Language : Portuguese
Default : No
Forced : No

Text #32
ID : 34
Format : UTF-8
Codec ID : S_TEXT/UTF8
Codec ID/Info : UTF-8 Plain Text
Duration : 48 min 37 s
Bit rate : 115 b/s
Frame rate : 0.254 FPS
Count of elements : 742
Stream size : 41.1 KiB (0%)
Title : Русский
Language : Russian
Default : No
Forced : No

Text #33
ID : 35
Format : UTF-8
Codec ID : S_TEXT/UTF8
Codec ID/Info : UTF-8 Plain Text
Duration : 48 min 16 s
Bit rate : 70 b/s
Frame rate : 0.271 FPS
Count of elements : 786
Stream size : 25.0 KiB (0%)
Title : Sloven?ina
Language : Slovak
Default : No
Forced : No

Text #34
ID : 36
Format : UTF-8
Codec ID : S_TEXT/UTF8
Codec ID/Info : UTF-8 Plain Text
Duration : 48 min 37 s
Bit rate : 64 b/s
Frame rate : 0.246 FPS
Count of elements : 717
Stream size : 23.0 KiB (0%)
Title : Sloven??ina
Language : Slovenian
Default : No
Forced : No

Text #35
ID : 37
Format : UTF-8
Codec ID : S_TEXT/UTF8
Codec ID/Info : UTF-8 Plain Text
Duration : 48 min 37 s
Bit rate : 76 b/s
Frame rate : 0.256 FPS
Count of elements : 746
Stream size : 27.4 KiB (0%)
Title : Svenska
Language : Swedish
Default : No
Forced : No

Text #36
ID : 38
Format : UTF-8
Codec ID : S_TEXT/UTF8
Codec ID/Info : UTF-8 Plain Text
Duration : 48 min 37 s
Bit rate : 255 b/s
Frame rate : 0.271 FPS
Count of elements : 790
Stream size : 90.9 KiB (0%)
Title : ?????
Language : Tamil
Default : No
Forced : No

Text #37
ID : 39
Format : UTF-8
Codec ID : S_TEXT/UTF8
Codec ID/Info : UTF-8 Plain Text
Duration : 48 min 37 s
Bit rate : 237 b/s
Frame rate : 0.271 FPS
Count of elements : 790
Stream size : 84.7 KiB (0%)
Title : ??????
Language : Telugu
Default : No
Forced : No

Text #38
ID : 40
Format : UTF-8
Codec ID : S_TEXT/UTF8
Codec ID/Info : UTF-8 Plain Text
Duration : 48 min 37 s
Bit rate : 165 b/s
Frame rate : 0.271 FPS
Count of elements : 790
Stream size : 59.1 KiB (0%)
Title : ???
Language : Thai
Default : No
Forced : No

Text #39
ID : 41
Format : UTF-8
Codec ID : S_TEXT/UTF8
Codec ID/Info : UTF-8 Plain Text
Duration : 48 min 37 s
Bit rate : 79 b/s
Frame rate : 0.263 FPS
Count of elements : 767
Stream size : 28.3 KiB (0%)
Title : Türk?e
Language : Turkish
Default : No
Forced : No

Text #40
ID : 42
Format : UTF-8
Codec ID : S_TEXT/UTF8
Codec ID/Info : UTF-8 Plain Text
Duration : 48 min 37 s
Bit rate : 115 b/s
Frame rate : 0.270 FPS
Count of elements : 789
Stream size : 41.2 KiB (0%)
Title : Укра?нська
Language : Ukrainian
Default : No
Forced : No

Text #41
ID : 43
Format : UTF-8
Codec ID : S_TEXT/UTF8
Codec ID/Info : UTF-8 Plain Text
Duration : 48 min 37 s
Bit rate : 99 b/s
Frame rate : 0.271 FPS
Count of elements : 790
Stream size : 35.3 KiB (0%)
Title : Ti?ng Vi?t
Language : Vietnamese
Default : No
Forced : No


点击图片可查看大图

软字幕无法在截图上展现,HDR版本/杜比视界版本截图会出现颜色异常,请使用支持的设备播放!



1 个附件 售价 大小 下载 时间

Palm.Royale.S01.2024.2160p.ATVP.WEB-DL.DDP5.1.Atmos.H.265-LelveTV[1LOU.ME].torrent 0 金币 21.39K 119 次 24天前

#1楼
发帖时间:2024-04-24 12:41:49   |   回复数:0
游客组