Asuka601
隐世仙人♂

[2021] [其它] [惊悚] [WEB-4K] 极道公主[简繁英字幕].Yakuza.Princess.2021.2160p.UHD.BluRay.x265.10bit.HDR.Atmos.TrueHD.7.

-->

完整标题:极道公主[简繁英字幕].Yakuza.Princess.2021.2160p.UHD.BluRay.x265.10bit.HDR.Atmos.TrueHD.7.1-SONYHD 11.77GB



◎标  题 极道公主
◎片  名 Yakuza Princess
◎年  代 2021
◎产  地 巴西
◎类  别 惊悚
◎语  言 英语
◎上映日期 2021-09-03(美国)
◎IMDb评分 4.7/10 (1836人评价)
◎IMDb链接 https://www.imdb.com/title/tt10715446/
◎豆瓣评分 4.1/10 (419人评价)
◎豆瓣链接 https://movie.douban.com/subject/35156095/
◎片  长 111分钟
◎导  演 威森特·阿莫里姆 Vicente Amorim
◎编  剧 威森特·阿莫里姆 Vicente Amorim
◎演  员 乔纳森·莱斯·梅耶斯 Jonathan Rhys Meyers
      伊原刚志 Tsuyoshi Ihara
      肯尼·梁 Kenny Leu
      尾崎英二郎 Eijiro Ozaki
      查尔斯·帕拉文蒂 Charles Paraventi
      尼可拉斯·特列维扬诺 Nicolas Trevijano
      MASUMI

◎简  介
    围绕巴西圣保罗最大的日本侨民社区展开,讲述了孤儿Akemi(Masumi饰)发现自己是黑道犯罪集团一半的继承人,她在与一个失忆的陌生人(莱斯·梅耶斯饰)结成联盟后,Akemi相信是一把古老的剑将他们两人的命运捆绑在一起,她向想要她死的另一半犯罪集团发动了战争。

##### MediaInfo ######
General
Unique ID : 58452764838298863268095240062443119230 (0x2BF997CFBA6A21A2782D90CD9E5EE27E)
Complete name : Yakuza.Princess.2021.2160p.UHD.BluRay.x265.10bit.HDR.Atmos.TrueHD.7.1-SONYHD.mkv
Duration : 1 h 51 min
Overall bit rate mode : Variable
Overall bit rate : 15.2 Mb/s

Video
ID : 1
Format : HEVC
Format/Info : High Efficiency Video Coding
Format profile : Main [email protected]@High
HDR format : SMPTE ST 2086, HDR10 compatible
Codec ID : V_MPEGH/ISO/HEVC
Duration : 1 h 51 min
Bit rate : 10.0 Mb/s
Width : 3 840 pixels
Height : 1 608 pixels
Display aspect ratio : 2.40:1
Frame rate mode : Constant
Frame rate : 23.976 (24000/1001) FPS
Color space : YUV
Chroma subsampling : 4:2:0
Bit depth : 10 bits
Bits/(Pixel*Frame) : 0.068
Stream size : 7.77 GiB (66%)
Writing library : x265 3.5g2b25c9ba0+45:[Windows][MSVC 1926][64 bit] Yuuki 10bit+8bit+12bit
Encoding settings : rc=crf / crf=22.0000 / qcomp=0.70 / qpstep=4 / stats-write=0 / stats-read=0 / vbv-maxrate=160000 / vbv-bufsize=160000 / vbv-init=0.9 / min-vbv-fullness=50.0 / max-vbv-fullness=80.0 / crf-max=0.0 / crf-min=0.0 / no-lossless / no-cu-lossless / aq-mode=3 / aq-strength=0.60 / cbqpoffs=0 / crqpoffs=0 / ipratio=1.40 / pbratio=1.30 / psy-rd=2.00 / psy-rdoq=2.00 / deblock=-3:-3 / ref=6 / limit-refs=1 / no-limit-modes / bframes=11 / b-adapt=2 / bframe-bias=0 / b-pyramid / b-intra / weightp / weightb / min-keyint=1 / max-keyint=240 / rc-lookahead=72 / gop-lookahead=0 / scenecut=40 / hist-scenecut=0 / radl=0 / max-cu-size=64 / min-cu-size=8 / me=3 / subme=6 / merange=48 / rdoq-level=2 / rd=4 / rdpenalty=0 / dynamic-rd=0.00 / no-rd-refine / ----- / no-cutree / no-sao / no-rect / no-amp / no-open-gop / wpp / no-pmode / no-pme / no-psnr / no-ssim / nr-intra=0 / nr-inter=0 / no-constrained-intra / no-strong-intra-smoothing / max-tu-size=32 / tu-inter-depth=4 / tu-intra-depth=4 / limit-tu=0 / qg-size=32 / qpmax=69 / qpmin=0 / ----- / cpuid=1049583 / frame-threads=5 / numa-pools=+ / log-level=2 / input-csp=1 / input-res=3840x1608 / interlace=0 / level-idc=51 / high-tier=1 / uhd-bd=0 / no-allow-non-conformance / repeat-headers / aud / no-hrd / info / hash=0 / no-temporal-layers / lookahead-slices=0 / no-splice / no-intra-refresh / no-ssim-rd / signhide / no-tskip / max-merge=5 / temporal-mvp / no-frame-dup / no-hme / analyze-src-pics / no-sao-non-deblock / selective-sao=0 / early-skip / rskip / no-fast-intra / no-tskip-fast / no-splitrd-skip / zone-count=0 / no-strict-cbr / no-rc-grain / no-const-vbv / sar=0 / overscan=0 / videoformat=5 / range=0 / colorprim=9 / transfer=16 / colormatrix=9 / chromaloc=0 / display-window=0 / master-display=G(13250,34500)B(7500,3000)R(34000,16000)WP(15635,16450)L(100000000,10) / cll=0,0 / min-luma=0 / max-luma=1023 / log2-max-poc-lsb=8 / vui-timing-info / vui-hrd-info / slices=1 / no-opt-qp-pps / no-opt-ref-list-length-pps / no-multi-pass-opt-rps / scenecut-bias=0.05 / hist-threshold=0.03 / no-opt-cu-delta-qp / no-aq-motion / hdr10 / hdr10-opt / no-dhdr10-opt / no-idr-recovery-sei / analysis-reuse-level=0 / analysis-save-reuse-level=0 / analysis-load-reuse-level=0 / scale-factor=0 / refine-intra=0 / refine-inter=0 / refine-mv=1 / refine-ctu-distortion=0 / no-limit-sao / ctu-info=0 / no-lowpass-dct / refine-analysis-type=0 / copy-pic=1 / max-ausize-factor=1.0 / no-dynamic-refine / no-single-sei / no-hevc-aq / no-svt / no-field / qp-adaptation-range=1.00 / scenecut-aware-qp=0conformance-window-offsets / right=0 / bottom=0 / decoder-max-rate=0 / no-vbv-live-multi-pass
Language : English
Default : Yes
Forced : No
Color range : Limited
Color primaries : BT.2020
Transfer characteristics : PQ
Matrix coefficients : BT.2020 non-constant
Mastering display color primaries : Display P3
Mastering display luminance : min: 0.0010 cd/m2, max: 10000 cd/m2

Audio
ID : 2
ID in the original source medium : 4352 (0x1100)
Format : MLP FBA 16-ch
Format/Info : Meridian Lossless Packing FBA with 16-channel presentation
Commercial name : Dolby TrueHD with Dolby Atmos
Codec ID : A_TRUEHD
Duration : 1 h 51 min
Bit rate mode : Variable
Bit rate : 5 055 kb/s
Maximum bit rate : 8 349 kb/s
Channel(s) : 8 channels
Channel layout : L R C LFE Ls Rs Lb Rb
Sampling rate : 48.0 kHz
Frame rate : 1 200.000 FPS (40 SPF)
Compression mode : Lossless
Stream size : 3.93 GiB (33%)
Language : English
Default : Yes
Forced : No
Original source medium : Blu-ray
Number of dynamic objects : 15
Bed channel count : 1 channel
Bed channel configuration : LFE

Text #1
ID : 3
ID in the original source medium : 4770 (0x12A2)
Format : PGS
Muxing mode : zlib
Codec ID : S_HDMV/PGS
Codec ID/Info : Picture based subtitle format used on BDs/HD-DVDs
Duration : 1 h 42 min
Bit rate : 10.4 kb/s
Frame rate : 0.188 FPS
Count of elements : 1157
Stream size : 7.63 MiB (0%)
Title : chs
Language : Chinese
Default : Yes
Forced : No
Original source medium : Blu-ray

Text #2
ID : 4
ID in the original source medium : 4771 (0x12A3)
Format : PGS
Muxing mode : zlib
Codec ID : S_HDMV/PGS
Codec ID/Info : Picture based subtitle format used on BDs/HD-DVDs
Duration : 1 h 42 min
Bit rate : 10.5 kb/s
Frame rate : 0.188 FPS
Count of elements : 1157
Stream size : 7.73 MiB (0%)
Title : cht
Language : Chinese
Default : No
Forced : No
Original source medium : Blu-ray

Text #3
ID : 5
ID in the original source medium : 4769 (0x12A1)
Format : PGS
Muxing mode : zlib
Codec ID : S_HDMV/PGS
Codec ID/Info : Picture based subtitle format used on BDs/HD-DVDs
Duration : 1 h 44 min
Bit rate : 34.8 kb/s
Frame rate : 0.273 FPS
Count of elements : 1716
Stream size : 26.0 MiB (0%)
Language : English
Default : No
Forced : No
Original source medium : Blu-ray

Menu
00:00:00.000 : en:第 01 章
00:07:52.262 : en:第 02 章
00:13:39.817 : en:第 03 章
00:20:18.217 : en:第 04 章
00:30:24.823 : en:第 05 章
00:39:51.389 : en:第 06 章
00:45:36.733 : en:第 07 章
00:53:15.192 : en:第 08 章
01:02:26.742 : en:第 09 章
01:12:37.353 : en:第 10 章
01:19:56.792 : en:第 11 章
01:27:04.219 : en:第 12 章
01:34:23.658 : en:第 13 章
01:43:29.661 : en:第 14 章


部分资源为软字幕,移动端推荐播放器:MxPlayer,nPlayer,infuse ,其他播放器请自行尝试。

部分资源为软字幕,电脑端推荐播放器:PotPlayer,完美解码,KMPLAYER,其他播放器请自行尝试。

下载端推荐纯BT下载软件:qBittorrent,Bitcomet,uTorrent ,其他下载软件请自行尝试。不支持吸血迅雷。



1 个附件 售价 大小 下载 时间

Yakuza.Princess.2021.2160p.UHD.BluRay.x265.10bit.HDR.Atmos.TrueHD.7.1-SONYH..[1LOU.ME].torrent 0 金币 32.05K 1302 次 1月前

#1楼
发帖时间:2024-04-24 12:21:08   |   回复数:1
popeye69
一代宗师
感谢楼主分享!
1月前 #2楼
游客组