Asuka601
隐世仙人♂

[2024] [大陆] [动作] [WEB-1080P] 仙剑奇侠传前传:酒剑仙[国语配音/中文字幕].2024.1080p.WEB-DL.H265.DDP5.1-DreamHD 2.70GB

-->

完整标题:仙剑奇侠传前传:酒剑仙[国语配音/中文字幕].2024.1080p.WEB-DL.H265.DDP5.1-DreamHD 2.70GB



◎标  题 仙剑奇侠传前传:酒剑仙
◎译  名 酒剑仙 / 仙剑奇侠传前传之酒剑仙
◎年  代 2024
◎产  地 中国大陆
◎类  别 动作 / 武侠
◎语  言 汉语普通话
◎上映日期 2024-02-20(中国大陆网络)
◎IMDb链接 https://www.imdb.com/title//
◎豆瓣链接 https://movie.douban.com/subject/35131208/
◎演  员 盛冠森 Guansen Sheng
      曹婉瑾 Wanjin Cao
      施骏喆 Jason Sze
      巫迪文 Dean Wu
      韩栋 Dong Han

◎简  介
    追溯了酒剑仙司徒钟的前史——锁妖塔崩坏前36年的故事。

点击图片可查看大图

软字幕无法在截图上展现,HDR版本/杜比视界版本截图会出现颜色异常,请使用支持的设备播放!

##### MediaInfo ######
General
Unique ID : 190962159205408526475403194459087983571 (0x8FA9F95C613A9E16B0D3B49090A453D3)
Complete name : Chinese.Paladin.Prequel.The.Wine.Sword.Fairy.2024.1080p.WEB-DL.H265.DDP5.1-DreamHD.mkv
Duration : 1 h 31 min
Overall bit rate : 4 220 kb/s

Video
ID : 1
Format : HEVC
Format/Info : High Efficiency Video Coding
Format profile : Main@L4@Main
Codec ID : V_MPEGH/ISO/HEVC
Duration : 1 h 31 min
Bit rate : 2 810 kb/s
Width : 1 920 pixels
Height : 720 pixels
Display aspect ratio : 2.667
Frame rate mode : Constant
Frame rate : 24.000 FPS
Color space : YUV
Chroma subsampling : 4:2:0
Bit depth : 8 bits
Bits/(Pixel*Frame) : 0.085
Stream size : 1.80 GiB (67%)
Default : Yes
Forced : No
Color range : Limited

Audio #1
ID : 2
Format : E-AC-3
Format/Info : Enhanced AC-3
Commercial name : Dolby Digital Plus
Codec ID : A_EAC3
Duration : 1 h 31 min
Bit rate mode : Constant
Bit rate : 448 kb/s
Channel(s) : 6 channels
Channel layout : L R C LFE Ls Rs
Sampling rate : 48.0 kHz
Frame rate : 31.250 FPS (1536 SPF)
Compression mode : Lossy
Stream size : 293 MiB (11%)
Title : Mandarin [DDP5.1]
Language : Chinese
Service kind : Complete Main
Default : Yes
Forced : No

Audio #2
ID : 3
Format : E-AC-3
Format/Info : Enhanced AC-3
Commercial name : Dolby Digital Plus
Codec ID : A_EAC3
Duration : 1 h 31 min
Bit rate mode : Constant
Bit rate : 256 kb/s
Channel(s) : 6 channels
Channel layout : L R C LFE Ls Rs
Sampling rate : 48.0 kHz
Frame rate : 31.250 FPS (1536 SPF)
Compression mode : Lossy
Stream size : 168 MiB (6%)
Title : Mandarin [DDP5.1]
Language : Chinese
Service kind : Complete Main
Default : No
Forced : No

Audio #3
ID : 4
Format : E-AC-3
Format/Info : Enhanced AC-3
Commercial name : Dolby Digital Plus
Codec ID : A_EAC3
Duration : 1 h 31 min
Bit rate mode : Constant
Bit rate : 256 kb/s
Channel(s) : 2 channels
Channel layout : L R
Sampling rate : 48.0 kHz
Frame rate : 31.250 FPS (1536 SPF)
Bit depth : 32 bits
Compression mode : Lossy
Stream size : 168 MiB (6%)
Title : Mandarin [DDP2.0]
Language : Chinese
Service kind : Complete Main
Default : No
Forced : No

Audio #4
ID : 5
Format : AAC LC
Format/Info : Advanced Audio Codec Low Complexity
Codec ID : A_AAC-2
Duration : 1 h 31 min
Bit rate : 256 kb/s
Channel(s) : 2 channels
Channel layout : L R
Sampling rate : 44.1 kHz
Frame rate : 43.066 FPS (1024 SPF)
Compression mode : Lossy
Stream size : 168 MiB (6%)
Title : Mandarin [AAC2.0]
Language : Chinese
Default : No
Forced : No

Audio #5
ID : 6
Format : AAC LC
Format/Info : Advanced Audio Codec Low Complexity
Codec ID : A_AAC-2
Duration : 1 h 31 min
Bit rate : 192 kb/s
Channel(s) : 2 channels
Channel layout : L R
Sampling rate : 44.1 kHz
Frame rate : 43.066 FPS (1024 SPF)
Compression mode : Lossy
Stream size : 124 MiB (5%)
Title : Mandarin [AAC2.0]
Language : Chinese
Default : No
Forced : No


部分资源为软字幕,移动端推荐播放器:MxPlayer,nPlayer,infuse ,其他播放器请自行尝试。

部分资源为软字幕,电脑端推荐播放器:PotPlayer,完美解码,KMPLAYER,其他播放器请自行尝试。



1 个附件 售价 大小 下载 时间

2024.1080p.WEB-DL.H265.DDP5.1-DreamHD[1LOU.ME].torrent 0 金币 9.86K 1386 次 1月前

#1楼
发帖时间:2024-02-23 20:06:07   |   回复数:0
游客组