Asuka601
隐世仙人♂

[更 早] [韩国] [剧情] [BD-1080P] 太白山脉[中文字幕/特效字幕].The.Taebaek.Mountains.1994.Bluray.1080p.AAC2.0.x264-DreamHD 4.83

-->

完整标题:太白山脉[中文字幕/特效字幕].The.Taebaek.Mountains.1994.Bluray.1080p.AAC2.0.x264-DreamHD 4.83GB



◎标  题 太白山脉
◎译  名 太白山 / The Taebaek Mountains / Taebaek sanmaek
◎片  名 태백산맥
◎年  代 1994
◎产  地 韩国
◎类  别 剧情 / 历史 / 战争
◎语  言 韩语
◎上映日期 1994-09-17(韩国)
◎IMDb评分 6.9/10 (226人评价)
◎IMDb链接 https://www.imdb.com/title/tt0111348/
◎豆瓣评分 8.4/10 (2585人评价)
◎豆瓣链接 https://movie.douban.com/subject/1401254/
◎片  长 168分钟
◎导  演 林权泽 Kwon-taek Im
◎编  剧 宋能汉 Neung-han Song
◎演  员 安圣基 Sung-kee Ahn
      方银振 Eun-jin Bang
      郑善京 Seon-kyeong Jeong
      金甲洙 Kap-su Kim
      吴侦孩 Jung-hae Oh
      金明坤 Myung-gon Kim
      申贤俊 Hyeon-jun Shin

◎简  介
    二战虽然结束,但它所遗留下的问题还余波震荡。美苏两大集团为了各自的利益在朝鲜半岛争端骤起,让企盼和平、渴望建立民主自由政府的朝鲜人民的愿望落空。国家分裂,战争再次降临,民族的苦难愈加深重。   破巢之下,安有完卵。在一个名叫筏桥的村庄,南北双方展开了拉锯战,村民则成为权力更迭过程中的牺牲品。村中的尚九(金甲洙 饰)和尚珍(金明坤 饰)两兄弟分属南北两个阵营,为了各自的信仰,他们付出了沉重的代价……   本片根据韩国同名历史小说改编,并荣获1994年青龙奖最佳影片奖。

点击图片可查看大图

软字幕无法在截图上展现,HDR版本/杜比视界版本截图会出现颜色异常,请使用支持的设备播放!

##### MediaInfo ######
General
Complete name : The.Taebaek.Mountains.1994.Bluray.1080p.AAC2.0.x264-DreamHD.mp4
Duration : 2 h 44 min
Overall bit rate : 4 203 kb/s

Video
ID : 1
Format : AVC
Format/Info : Advanced Video Codec
Format profile : [email protected]
Format settings : 4 Ref Frames
Format settings, CABAC : No
Format settings, Reference frames : 4 frames
Codec ID : avc1
Codec ID/Info : Advanced Video Coding
Duration : 2 h 44 min
Bit rate : 3 999 kb/s
Width : 1 920 pixels
Height : 1 080 pixels
Display aspect ratio : 16:9
Frame rate mode : Variable
Frame rate : 23.976 (24000/1001) FPS
Minimum frame rate : 23.974 FPS
Maximum frame rate : 23.981 FPS
Color space : YUV
Chroma subsampling : 4:2:0
Bit depth : 8 bits
Scan type : Progressive
Bits/(Pixel*Frame) : 0.080
Stream size : 4.60 GiB (95%)
Writing library : x264 core 164 r3107 a8b68ebf
Encoding settings : cabac=0 / ref=4 / deblock=0:0:0 / analyse=0x1:0x111 / me=hex / subme=8 / psy=1 / psy_rd=1.00:0.00 / mixed_ref=1 / me_range=16 / chroma_me=1 / trellis=2 / 8x8dct=0 / cqm=0 / deadzone=21,11 / fast_pskip=1 / chroma_qp_offset=-2 / threads=34 / lookahead_threads=5 / sliced_threads=0 / nr=0 / decimate=1 / interlaced=0 / bluray_compat=0 / constrained_intra=0 / bframes=3 / b_pyramid=2 / b_adapt=1 / b_bias=0 / direct=3 / weightb=0 / open_gop=0 / weightp=0 / keyint=240 / keyint_min=24 / scenecut=40 / intra_refresh=0 / rc_lookahead=50 / rc=2pass / mbtree=1 / bitrate=4000 / ratetol=1.0 / qcomp=0.60 / qpmin=0 / qpmax=69 / qpstep=4 / cplxblur=20.0 / qblur=0.5 / vbv_maxrate=50000 / vbv_bufsize=62500 / nal_hrd=none / filler=0 / ip_ratio=1.40 / aq=1:1.00
Encoded date : UTC 2024-02-22 13:57:25
Tagged date : UTC 2024-02-22 13:57:25
Color range : Limited
Color primaries : BT.709
Transfer characteristics : BT.709
Matrix coefficients : BT.709
Menus : 3
mdhd_Duration : 9878076
Codec configuration box : avcC

Audio
ID : 2
Format : AAC LC
Format/Info : Advanced Audio Codec Low Complexity
Codec ID : mp4a-40-2
Duration : 2 h 44 min
Source duration : 2 h 44 min
Bit rate mode : Constant
Bit rate : 196 kb/s
Channel(s) : 2 channels
Channel layout : L R
Sampling rate : 48.0 kHz
Frame rate : 46.875 FPS (1024 SPF)
Compression mode : Lossy
Stream size : 231 MiB (5%)
Source stream size : 231 MiB (5%)
Title : Stereo
Language : Korean
Default : Yes
Alternate group : 1
Encoded date : UTC 2024-02-22 13:57:25
Tagged date : UTC 2024-02-22 13:57:25
Menus : 3

Menu
ID : 3
Format : Timed Text
Codec ID : text
Duration : 2 h 44 min
Language : English
Encoded date : UTC 2024-02-22 13:57:25
Tagged date : UTC 2024-02-22 13:57:25
Menu For : 1,2
00:00:00.000 : Chapter 1
00:07:45.799 : Chapter 2
00:16:19.645 : Chapter 3
00:24:34.807 : Chapter 4
00:31:47.239 : Chapter 5
00:39:21.025 : Chapter 6
00:48:21.565 : Chapter 7
00:56:10.033 : Chapter 8
01:03:31.808 : Chapter 9
01:13:17.727 : Chapter 10
01:19:38.107 : Chapter 11
01:29:16.017 : Chapter 12
01:39:01.936 : Chapter 13
01:46:03.691 : Chapter 14
01:50:29.289 : Chapter 15
01:57:24.371 : Chapter 16
02:08:35.708 : Chapter 17
02:16:28.180 : Chapter 18
02:23:04.576 : Chapter 19
02:33:57.228 : Chapter 20


部分资源为软字幕,移动端推荐播放器:MxPlayer,nPlayer,infuse ,其他播放器请自行尝试。

部分资源为软字幕,电脑端推荐播放器:PotPlayer,完美解码,KMPLAYER,其他播放器请自行尝试。



1 个附件 售价 大小 下载 时间

The.Taebaek.Mountains.1994.Bluray.1080p.AAC2.0.x264-DreamHD[1LOU.ME].torrent 0 金币 15.26K 1113 次 1月前

#1楼
发帖时间:2024-02-23 20:03:33   |   回复数:0
游客组