Asuka601
隐世仙人♂

[2023] [欧美] [动作] [WEB-4K] 惊奇队长2[国英多音轨/中文字幕/特效字幕].The.Marvels.2023.V2.Bluray.2160p.TrueHD7.1.HDR.x265.10bit

-->

完整标题:惊奇队长2[国英多音轨/中文字幕/特效字幕].The.Marvels.2023.V2.Bluray.2160p.TrueHD7.1.HDR.x265.10bit-DreamHD 21.08GB



◎标  题 惊奇队长2
◎译  名 惊奇联盟 / 漫威队长2 / 惊奇女士2 / Marvel队长2(港)
◎片  名 The Marvels
◎年  代 2023
◎产  地 美国
◎类  别 动作 / 奇幻 / 冒险
◎语  言 英语 / 乌尔都语 / 阿拉伯语
◎上映日期 2023-11-10(美国 / 中国大陆) / 2023-11-08(中国香港)
◎IMDb评分 5.7/10 (74977人评价)
◎IMDb链接 https://www.imdb.com/title/tt10676048/
◎豆瓣评分 5.2/10 (52503人评价)
◎豆瓣链接 https://movie.douban.com/subject/34678231/
◎片  长 105分钟
◎导  演 尼娅·达科斯塔 Nia DaCosta
◎编  剧 尼娅·达科斯塔 Nia DaCosta
      梅根·麦克唐纳 Megan McDonnell
      艾丽莎·卡拉西克 Elissa Karasik
      扎布·威尔斯 Zeb Wells
      吉因·科兰 Gene Colan
      罗伊·托马斯 Roy Thomas
◎演  员 布丽·拉尔森 Brie Larson
      泰柔娜·派丽丝 Teyonah Parris
      伊曼·韦拉尼 Iman Vellani
      塞缪尔·杰克逊 Samuel L. Jackson
      扎威·阿什顿 Zawe Ashton
      加里·刘易斯 Gary Lewis
      朴叙俊 Seo-Joon Park
      泽诺比娅·谢罗夫 Zenobia Shroff
      莫汉·卡普尔 Mohan Kapur
      萨加尔·谢赫 Saagar Shaikh
      蕾拉·法扎德 Leila Farzad
      亚伯拉罕·波波拉 Abraham Popoola
      泰莎·汤普森 Tessa Thompson
      海莉·斯坦菲尔德 Hailee Steinfeld
      拉什纳·林奇 Lashana Lynch
      凯尔希·格兰莫 Kelsey Grammer
      丹尼尔·英格斯 Daniel Ings
      亚历克斯·休赫斯 Alex Hughes
      莎迪娅·萨加拉 Shardiah Ssagala
      塞西莉·克利夫 Cecily Cleeve
      雷米·达比利-麦克奎德 Remi Dabiri-McQuaid
      菲恩·乔利 Ffion Jolly
      肯尼迪·麦克卡勒姆-马丁 Kenedy McCallam-Martin
      萨凡娜·斯基纳-亨利 Savannah Skinner-Henry
      卡罗琳·西蒙内特 Caroline Simonnet
      艾米莉·吴 Emily Ng
      乔纳森·科普 Jonathan Cope
      科林·斯通利 Colin Stoneley
      市村光 Kei Ichimura
      维诺德·达瓦勒 Vinod Dhawale
      卡玛拉·本杰明·巴内特 Kamara Benjamin Barnett
      肯尼-李·姆巴内福 Kenny-Lee Mbanefo
      托尼·麦克卡锡 Tony McCarthy
      迈克尔·奥拉德勒 Michael Oladele

◎简  介
    “惊奇队长”卡罗尔·丹弗斯(布丽·拉尔森 Brie Larson 饰)从残暴的克里人手中夺回了属于自己的身份,也对至高智慧完成了复仇。然而,意想不到的后果出现了。面对动荡脆弱的宇宙,她毅然决然地挺身而出。执行任务时,她来到一个神秘的特殊虫洞。在这里,她与另外两位女英雄产生了能力纠缠——一位是来自泽西市、惊奇队长的超级粉丝“惊奇少女”卡玛拉·克汗(伊曼·韦拉尼 Iman Vellani 饰),另一位是曾与卡罗尔亲密无间的小侄女、如今长大在天剑局(S.A.B.E.R.)担任宇航员的莫妮卡·兰博队长(泰柔娜·派丽丝 Teyonah Parris 饰)。看似不搭界的三人必须齐心协力,以“惊奇联盟”的身份拯救宇宙。

点击图片可查看大图

软字幕无法在截图上展现,HDR版本/杜比视界版本截图会出现颜色异常,请使用支持的设备播放!

##### MediaInfo ######
General
Unique ID : 71787307780656836980019396943903671994 (0x3601BB89967073BBAAECF2EAEC6B46BA)
Complete name : The.Marvels.2023.V2.Bluray.2160p.TrueHD7.1.HDR.x265.10bit-NukeHD.mkv
Duration : 1 h 44 min
Overall bit rate mode : Variable
Overall bit rate : 28.8 Mb/s

Video
ID : 1
Format : HEVC
Format/Info : High Efficiency Video Coding
Format profile : Main 10@L5@Main
HDR format : SMPTE ST 2086, HDR10 compatible
Codec ID : V_MPEGH/ISO/HEVC
Duration : 1 h 44 min
Bit rate : 23.5 Mb/s
Width : 3 840 pixels
Height : 1 608 pixels
Display aspect ratio : 2.40:1
Frame rate mode : Constant
Frame rate : 23.976 (24000/1001) FPS
Color space : YUV
Chroma subsampling : 4:2:0 (Type 2)
Bit depth : 10 bits
Bits/(Pixel*Frame) : 0.158
Stream size : 17.2 GiB (81%)
Writing library : x265 3.5+100-3dae0c3cc:[Windows][GCC 12.2.0][64 bit] 10bit
Encoding settings : cpuid=1111039 / frame-threads=5 / numa-pools=64,32,0,0 / wpp / no-pmode / no-pme / no-psnr / no-ssim / log-level=2 / input-csp=1 / input-res=3840x1608 / interlace=0 / total-frames=0 / level-idc=0 / high-tier=1 / uhd-bd=0 / ref=6 / no-allow-non-conformance / repeat-headers / annexb / no-aud / no-eob / no-eos / no-hrd / info / hash=0 / temporal-layers=0 / no-open-gop / min-keyint=23 / keyint=250 / gop-lookahead=0 / bframes=14 / b-adapt=2 / b-pyramid / bframe-bias=0 / rc-lookahead=75 / lookahead-slices=8 / scenecut=40 / no-hist-scenecut / radl=0 / no-splice / no-intra-refresh / ctu=32 / min-cu-size=8 / no-rect / no-amp / max-tu-size=32 / tu-inter-depth=1 / tu-intra-depth=1 / limit-tu=0 / rdoq-level=2 / dynamic-rd=0.00 / no-ssim-rd / signhide / no-tskip / nr-intra=0 / nr-inter=0 / no-constrained-intra / no-strong-intra-smoothing / max-merge=3 / limit-refs=1 / no-limit-modes / me=3 / subme=7 / merange=64 / temporal-mvp / no-frame-dup / no-hme / weightp / weightb / no-analyze-src-pics / deblock=0:0 / no-sao / no-sao-non-deblock / rd=4 / selective-sao=0 / no-early-skip / rskip / no-fast-intra / no-tskip-fast / no-cu-lossless / b-intra / no-splitrd-skip / rdpenalty=2 / psy-rd=3.00 / psy-rdoq=4.80 / no-rd-refine / no-lossless / cbqpoffs=0 / crqpoffs=0 / rc=crf / crf=10.1 / qcomp=0.60 / qpstep=4 / stats-write=0 / stats-read=0 / ipratio=1.40 / pbratio=1.30 / aq-mode=1 / aq-strength=1.00 / cutree / zone-count=0 / no-strict-cbr / qg-size=32 / no-rc-grain / qpmax=69 / qpmin=0 / no-const-vbv / sar=0 / overscan=0 / videoformat=5 / range=0 / colorprim=9 / transfer=16 / colormatrix=9 / chromaloc=1 / chromaloc-top=2 / chromaloc-bottom=2 / display-window=0 / master-display=G(8500,39850)B(6550,2300)R(35400,14600)WP(15635,16450)L(10000000,50) / cll=0,0 / min-luma=0 / max-luma=1023 / log2-max-poc-lsb=8 / vui-timing-info / vui-hrd-info / slices=1 / no-opt-qp-pps / no-opt-ref-list-length-pps / no-multi-pass-opt-rps / scenecut-bias=0.05 / no-opt-cu-delta-qp / aq-motion / hdr10 / hdr10-opt / no-dhdr10-opt / no-idr-recovery-sei / analysis-reuse-level=0 / analysis-save-reuse-level=0 / analysis-load-reuse-level=0 / scale-factor=0 / refine-intra=0 / refine-inter=0 / refine-mv=1 / refine-ctu-distortion=0 / no-limit-sao / ctu-info=0 / no-lowpass-dct / refine-analysis-type=0 / copy-pic=1 / max-ausize-factor=1.0 / no-dynamic-refine / no-single-sei / no-hevc-aq / no-svt / no-field / qp-adaptation-range=1.00 / scenecut-aware-qp=0conformance-window-offsets / right=0 / bottom=0 / decoder-max-rate=0 / no-vbv-live-multi-pass / no-mcstf / no-sbrc
Default : Yes
Forced : No
Color range : Limited
Color primaries : BT.2020
Transfer characteristics : PQ
Matrix coefficients : BT.2020 non-constant
Mastering display color primaries : BT.2020
Mastering display luminance : min: 0.0050 cd/m2, max: 1000 cd/m2

Audio #1
ID : 2
ID in the original source medium : 4352 (0x1100)
Format : MLP FBA 16-ch
Format/Info : Meridian Lossless Packing FBA with 16-channel presentation
Commercial name : Dolby TrueHD with Dolby Atmos
Codec ID : A_TRUEHD
Duration : 1 h 44 min
Bit rate mode : Variable
Bit rate : 4 686 kb/s
Maximum bit rate : 8 028 kb/s
Channel(s) : 8 channels
Channel layout : L R C LFE Ls Rs Lb Rb
Sampling rate : 48.0 kHz
Frame rate : 1 200.000 FPS (40 SPF)
Bit depth : 24 bits
Compression mode : Lossless
Stream size : 3.43 GiB (16%)
Title : English
Language : English
Default : Yes
Forced : No
Original source medium : Blu-ray
Number of dynamic objects : 13
Bed channel count : 1 channel
Bed channel configuration : LFE

Audio #2
ID : 3
ID in the original source medium : 4354 (0x1102)
Format : AC-3
Format/Info : Audio Coding 3
Commercial name : Dolby Digital
Codec ID : A_AC3
Duration : 1 h 44 min
Bit rate mode : Constant
Bit rate : 448 kb/s
Channel(s) : 6 channels
Channel layout : L R C LFE Ls Rs
Sampling rate : 48.0 kHz
Frame rate : 31.250 FPS (1536 SPF)
Compression mode : Lossy
Stream size : 336 MiB (2%)
Title : Mandarin
Language : Chinese
Service kind : Complete Main
Default : No
Forced : No
Original source medium : Blu-ray

Text #1
ID : 4
ID in the original source medium : 4769 (0x12A1)
Format : PGS
Muxing mode : zlib
Codec ID : S_HDMV/PGS
Codec ID/Info : Picture based subtitle format used on BDs/HD-DVDs
Duration : 1 h 36 min
Bit rate : 58.8 kb/s
Frame rate : 0.626 FPS
Count of elements : 3640
Stream size : 40.8 MiB (0%)
Title : CHS
Language : Chinese
Default : Yes
Forced : No
Original source medium : Blu-ray

Text #2
ID : 5
ID in the original source medium : 4770 (0x12A2)
Format : PGS
Muxing mode : zlib
Codec ID : S_HDMV/PGS
Codec ID/Info : Picture based subtitle format used on BDs/HD-DVDs
Duration : 1 h 36 min
Bit rate : 59.6 kb/s
Frame rate : 0.626 FPS
Count of elements : 3640
Stream size : 41.3 MiB (0%)
Title : CHT
Language : Chinese
Default : No
Forced : No
Original source medium : Blu-ray

Text #3
ID : 6
ID in the original source medium : 4771 (0x12A3)
Format : PGS
Muxing mode : zlib
Codec ID : S_HDMV/PGS
Codec ID/Info : Picture based subtitle format used on BDs/HD-DVDs
Duration : 1 h 36 min
Bit rate : 72.9 kb/s
Frame rate : 0.617 FPS
Count of elements : 3593
Stream size : 50.6 MiB (0%)
Title : CHS/ENG
Language : Chinese
Default : No
Forced : No
Original source medium : Blu-ray

Text #4
ID : 7
ID in the original source medium : 4780 (0x12AC)
Format : PGS
Muxing mode : zlib
Codec ID : S_HDMV/PGS
Codec ID/Info : Picture based subtitle format used on BDs/HD-DVDs
Duration : 1 h 36 min
Bit rate : 73.5 kb/s
Frame rate : 0.617 FPS
Count of elements : 3593
Stream size : 51.0 MiB (0%)
Title : CHT/ENG
Language : Chinese
Default : No
Forced : No
Original source medium : Blu-ray

Text #5
ID : 8
ID in the original source medium : 4768 (0x12A0)
Format : PGS
Muxing mode : zlib
Codec ID : S_HDMV/PGS
Codec ID/Info : Picture based subtitle format used on BDs/HD-DVDs
Duration : 1 h 44 min
Bit rate : 49.1 kb/s
Frame rate : 0.570 FPS
Count of elements : 3580
Stream size : 36.7 MiB (0%)
Title : ENG
Language : English
Default : No
Forced : No
Original source medium : Blu-ray

Menu
00:00:00.000 : en:Chapter 01
00:04:21.177 : en:Chapter 02
00:07:02.839 : en:Chapter 03
00:11:09.835 : en:Chapter 04
00:14:14.270 : en:Chapter 05
00:21:09.017 : en:Chapter 06
00:27:19.888 : en:Chapter 07
00:29:42.739 : en:Chapter 08
00:33:25.878 : en:Chapter 09
00:38:07.702 : en:Chapter 10
00:43:50.252 : en:Chapter 11
00:48:06.466 : en:Chapter 12
00:50:26.815 : en:Chapter 13
00:52:30.689 : en:Chapter 14
00:58:52.070 : en:Chapter 15
01:05:07.528 : en:Chapter 16
01:09:47.558 : en:Chapter 17
01:17:14.546 : en:Chapter 18
01:23:56.781 : en:Chapter 19
01:27:24.656 : en:Chapter 20
01:29:50.343 : en:Chapter 21
01:32:04.101 : en:Chapter 22
01:33:10.710 : en:Chapter 23
01:35:53.497 : en:Chapter 24
01:37:34.932 : en:Chapter 25


部分资源为软字幕,移动端推荐播放器:MxPlayer,nPlayer,infuse ,其他播放器请自行尝试。

部分资源为软字幕,电脑端推荐播放器:PotPlayer,完美解码,KMPLAYER,其他播放器请自行尝试。



1 个附件 售价 大小 下载 时间

The.Marvels.2023.V2.Bluray.2160p.TrueHD7.1.HDR.x265.10bit-DreamHD[1LOU.ME].torrent 0 金币 55.92K 6472 次 1月前

#1楼
发帖时间:2024-02-23 07:57:00   |   回复数:2
feung18
武林盟主
感激摟主發佈!
1月前 #2楼
liyouchai
隐世仙人♂
谢谢楼主分享资源
1月前 #3楼
游客组