Asuka601
隐世仙人♂

[更 早] [台湾] [剧情] [BD-1080P] 小毕的故事[国语音轨/简繁英字幕].Growing.Up.1983.1080p.BluRay.x265.10bit.FLAC.2.0-SONYHD 3.99GB

-->

完整标题:小毕的故事[国语音轨/简繁英字幕].Growing.Up.1983.1080p.BluRay.x265.10bit.FLAC.2.0-SONYHD 3.99GB



◎标  题 小毕的故事
◎译  名 Growing Up
◎片  名 小畢的故事
◎年  代 1983
◎产  地 中国台湾
◎类  别 剧情
◎语  言 闽南语 / 汉语普通话
◎上映日期 1983-01-29
◎IMDb评分 7.3/10 (395人评价)
◎IMDb链接 https://www.imdb.com/title/tt0085695/
◎豆瓣评分 8.3/10 (8504人评价)
◎豆瓣链接 https://movie.douban.com/subject/1305579/
◎片  长 100 分钟
◎导  演 陈坤厚 Kun Hao Chen
◎编  剧 朱天文 Tien-wen Chu
      丁亚民 Ya-min Ting
      侯孝贤 Hsiao-hsien Hou
      许淑贞 Shu-Chen Hsu
◎演  员 崔福生 Fu Sheng Tsui
      钮承泽 Doze Niu Chen-Zer
      颜正国 Ching-kuo Yan
      禹黎朔 Li-shuo Yu
      郑传文 Chuan-wen Cheng
      卢迪 Ti Lu
      庹宗华 Chung-Hua Tou
      张纯芳 Chun-Fang Chang
      曹健 Chien Tsao
      张冰玉 Ping-Yu Chang
      孙鹏 Peng Sun

◎简  介
    朱小凡见证了邻居男孩毕楚佳(伊绳祖、郑传文、钮承泽、庹宗华)的成长过程。   为了让小毕更好的成长,受骗怀孕又遭遗弃的毕妈妈(张纯芳)在他六岁时嫁给了从大陆到台的年近五十岁的公务员毕大顺(崔福生)。毕大顺对小毕视同己出,教他写字读书,准备把他培养成大学生。然而因为 被人看成“拖油瓶”,小毕与他的关系十分疏离,更不惜为了气他,做出偷漫画书、早恋、偷便当、和别人争强斗狠等举动。一件与钱有关的事,令毕大顺和小毕的关系降到最低点,毕妈妈在左右为难之际选择用极端方式激励小毕,让他看清更为丰硕的生命意义。

点击图片可查看大图

软字幕无法在截图上展现,HDR版本/杜比视界版本截图会出现颜色异常,请使用支持的设备播放!

##### MediaInfo ######
General
Unique ID : 304316002477282937320739230073796884325 (0xE4F12152FFDF966431037E0F1A92F765)
Complete name : Growing.Up.1983.1080p.BluRay.x265.10bit.FLAC.2.0-SONYHD.mkv
Duration : 1 h 35 min
Overall bit rate mode : Variable
Overall bit rate : 5 990 kb/s

Video
ID : 1
Format : HEVC
Format/Info : High Efficiency Video Coding
Format profile : Main 10@L5@Main
Codec ID : V_MPEGH/ISO/HEVC
Duration : 1 h 35 min
Bit rate : 5 517 kb/s
Width : 1 920 pixels
Height : 1 036 pixels
Display aspect ratio : 1.85:1
Frame rate mode : Constant
Frame rate : 24.000 FPS
Color space : YUV
Chroma subsampling : 4:2:0
Bit depth : 10 bits
Bits/(Pixel*Frame) : 0.116
Stream size : 3.67 GiB (92%)
Writing library : x265 3.5g2b25c9ba0+45:[Windows][GCC 10.2.0][64 bit] Yuuki 10bit+8bit+12bit
Encoding settings : rc=crf / crf=19.0000 / qcomp=0.60 / qpstep=4 / stats-write=0 / stats-read=0 / no-lossless / no-cu-lossless / aq-mode=3 / aq-strength=0.90 / cbqpoffs=0 / crqpoffs=0 / ipratio=1.40 / pbratio=1.30 / psy-rd=2.00 / psy-rdoq=0.00 / deblock=0:0 / ref=6 / limit-refs=1 / no-limit-modes / bframes=8 / b-adapt=2 / bframe-bias=0 / b-pyramid / b-intra / weightp / weightb / min-keyint=24 / max-keyint=240 / rc-lookahead=24 / gop-lookahead=0 / scenecut=40 / hist-scenecut=0 / radl=0 / max-cu-size=64 / min-cu-size=8 / me=3 / subme=7 / merange=48 / rdoq-level=0 / rd=4 / rdpenalty=0 / dynamic-rd=0.00 / no-rd-refine / ----- / cutree / sao / no-rect / no-amp / no-open-gop / wpp / no-pmode / no-pme / no-psnr / no-ssim / nr-intra=0 / nr-inter=0 / no-constrained-intra / no-strong-intra-smoothing / max-tu-size=32 / tu-inter-depth=1 / tu-intra-depth=1 / limit-tu=0 / qg-size=32 / qpmax=69 / qpmin=0 / ----- / cpuid=1111039 / frame-threads=5 / numa-pools=+ / log-level=2 / input-csp=1 / input-res=1920x1036 / interlace=0 / level-idc=0 / high-tier=1 / uhd-bd=0 / no-allow-non-conformance / no-repeat-headers / aud / no-hrd / info / hash=0 / no-temporal-layers / lookahead-slices=0 / no-splice / no-intra-refresh / no-ssim-rd / signhide / no-tskip / max-merge=3 / temporal-mvp / no-frame-dup / no-hme / no-analyze-src-pics / no-sao-non-deblock / selective-sao=4 / early-skip / rskip / no-fast-intra / no-tskip-fast / no-splitrd-skip / zone-count=0 / no-strict-cbr / no-rc-grain / no-const-vbv / sar=0 / overscan=0 / videoformat=5 / range=0 / colorprim=2 / transfer=2 / colormatrix=2 / chromaloc=0 / display-window=0 / cll=0,0 / min-luma=0 / max-luma=1023 / log2-max-poc-lsb=8 / vui-timing-info / vui-hrd-info / slices=1 / no-opt-qp-pps / no-opt-ref-list-length-pps / no-multi-pass-opt-rps / scenecut-bias=0.05 / hist-threshold=0.03 / no-opt-cu-delta-qp / no-aq-motion / no-hdr10 / no-hdr10-opt / no-dhdr10-opt / no-idr-recovery-sei / analysis-reuse-level=0 / analysis-save-reuse-level=0 / analysis-load-reuse-level=0 / scale-factor=0 / refine-intra=0 / refine-inter=0 / refine-mv=1 / refine-ctu-distortion=0 / no-limit-sao / ctu-info=0 / no-lowpass-dct / refine-analysis-type=0 / copy-pic=1 / max-ausize-factor=1.0 / no-dynamic-refine / no-single-sei / no-hevc-aq / no-svt / no-field / qp-adaptation-range=1.00 / scenecut-aware-qp=0conformance-window-offsets / right=0 / bottom=0 / decoder-max-rate=0 / no-vbv-live-multi-pass
Language : English
Default : Yes
Forced : No

Audio
ID : 2
Format : FLAC
Format/Info : Free Lossless Audio Codec
Codec ID : A_FLAC
Duration : 1 h 35 min
Bit rate mode : Variable
Bit rate : 416 kb/s
Channel(s) : 2 channels
Channel layout : L R
Sampling rate : 48.0 kHz
Frame rate : 11.719 FPS (4096 SPF)
Bit depth : 16 bits
Compression mode : Lossless
Stream size : 284 MiB (7%)
Title : Mandarin
Writing library : libFLAC 1.2.1 (UTC 2007-09-17)
Language : Chinese
Default : Yes
Forced : No

Text #1
ID : 3
ID in the original source medium : 4610 (0x1202)
Format : PGS
Muxing mode : zlib
Codec ID : S_HDMV/PGS
Codec ID/Info : Picture based subtitle format used on BDs/HD-DVDs
Duration : 1 h 33 min
Bit rate : 16.6 kb/s
Frame rate : 0.354 FPS
Count of elements : 1979
Stream size : 11.1 MiB (0%)
Title : chs
Language : Chinese
Default : Yes
Forced : No
Original source medium : Blu-ray

Text #2
ID : 4
ID in the original source medium : 4611 (0x1203)
Format : PGS
Muxing mode : zlib
Codec ID : S_HDMV/PGS
Codec ID/Info : Picture based subtitle format used on BDs/HD-DVDs
Duration : 1 h 33 min
Bit rate : 16.8 kb/s
Frame rate : 0.354 FPS
Count of elements : 1979
Stream size : 11.2 MiB (0%)
Title : cht
Language : Chinese
Default : No
Forced : No
Original source medium : Blu-ray

Text #3
ID : 5
ID in the original source medium : 4608 (0x1200)
Format : PGS
Muxing mode : zlib
Codec ID : S_HDMV/PGS
Codec ID/Info : Picture based subtitle format used on BDs/HD-DVDs
Duration : 1 h 30 min
Bit rate : 32.6 kb/s
Frame rate : 0.363 FPS
Count of elements : 1977
Stream size : 21.2 MiB (1%)
Title : bd cht
Language : Chinese
Default : No
Forced : No
Original source medium : Blu-ray

Text #4
ID : 6
ID in the original source medium : 4609 (0x1201)
Format : PGS
Muxing mode : zlib
Codec ID : S_HDMV/PGS
Codec ID/Info : Picture based subtitle format used on BDs/HD-DVDs
Duration : 1 h 30 min
Bit rate : 40.4 kb/s
Frame rate : 0.344 FPS
Count of elements : 1874
Stream size : 26.2 MiB (1%)
Title : eng
Language : English
Default : No
Forced : No
Original source medium : Blu-ray

Menu
00:00:00.000 : en:Chapter 01
00:18:29.125 : en:Chapter 02
00:40:17.791 : en:Chapter 03
00:56:16.291 : en:Chapter 04
01:12:54.250 : en:Chapter 05
01:24:00.208 : en:Chapter 06


部分资源为软字幕,移动端推荐播放器:MxPlayer,nPlayer,infuse ,其他播放器请自行尝试。

部分资源为软字幕,电脑端推荐播放器:PotPlayer,完美解码,KMPLAYER,其他播放器请自行尝试。



1 个附件 售价 大小 下载 时间

Growing.Up.1983.1080p.BluRay.x265.10bit.FLAC.2.0-SONYHD[1LOU.ME].torrent 0 金币 13.06K 1351 次 1月前

#1楼
发帖时间:2024-02-23 07:55:35   |   回复数:1
jokingcheung
超凡入圣№
谢谢分享
1月前 #2楼
游客组