Asuka601
隐世仙人♂

[更 早] [台湾] [剧情] [BD-1080P] 小毕的故事[国语音轨/简繁英字幕].Growing.Up.1983.1080p.BluRay.x264.FLAC.2.0-SONYHD 8.25GB

-->

完整标题:小毕的故事[国语音轨/简繁英字幕].Growing.Up.1983.1080p.BluRay.x264.FLAC.2.0-SONYHD 8.25GB



◎标  题 小毕的故事
◎译  名 Growing Up
◎片  名 小畢的故事
◎年  代 1983
◎产  地 中国台湾
◎类  别 剧情
◎语  言 闽南语 / 汉语普通话
◎上映日期 1983-01-29
◎IMDb评分 7.3/10 (395人评价)
◎IMDb链接 https://www.imdb.com/title/tt0085695/
◎豆瓣评分 8.3/10 (8504人评价)
◎豆瓣链接 https://movie.douban.com/subject/1305579/
◎片  长 100 分钟
◎导  演 陈坤厚 Kun Hao Chen
◎编  剧 朱天文 Tien-wen Chu
      丁亚民 Ya-min Ting
      侯孝贤 Hsiao-hsien Hou
      许淑贞 Shu-Chen Hsu
◎演  员 崔福生 Fu Sheng Tsui
      钮承泽 Doze Niu Chen-Zer
      颜正国 Ching-kuo Yan
      禹黎朔 Li-shuo Yu
      郑传文 Chuan-wen Cheng
      卢迪 Ti Lu
      庹宗华 Chung-Hua Tou
      张纯芳 Chun-Fang Chang
      曹健 Chien Tsao
      张冰玉 Ping-Yu Chang
      孙鹏 Peng Sun

◎简  介
    朱小凡见证了邻居男孩毕楚佳(伊绳祖、郑传文、钮承泽、庹宗华)的成长过程。   为了让小毕更好的成长,受骗怀孕又遭遗弃的毕妈妈(张纯芳)在他六岁时嫁给了从大陆到台的年近五十岁的公务员毕大顺(崔福生)。毕大顺对小毕视同己出,教他写字读书,准备把他培养成大学生。然而因为 被人看成“拖油瓶”,小毕与他的关系十分疏离,更不惜为了气他,做出偷漫画书、早恋、偷便当、和别人争强斗狠等举动。一件与钱有关的事,令毕大顺和小毕的关系降到最低点,毕妈妈在左右为难之际选择用极端方式激励小毕,让他看清更为丰硕的生命意义。

点击图片可查看大图

软字幕无法在截图上展现,HDR版本/杜比视界版本截图会出现颜色异常,请使用支持的设备播放!

##### MediaInfo ######
General
Unique ID : 331258203426276396932855125794730837370 (0xF936026377C2C2CB963760935CC4857A)
Complete name : Growing.Up.1983.1080p.BluRay.x264.FLAC.2.0-SONYHD.mkv
Duration : 1 h 35 min
Overall bit rate mode : Variable
Overall bit rate : 12.4 Mb/s

Video
ID : 1
Format : AVC
Format/Info : Advanced Video Codec
Format profile : [email protected]
Format settings : CABAC / 4 Ref Frames
Format settings, CABAC : Yes
Format settings, Reference frames : 4 frames
Codec ID : V_MPEG4/ISO/AVC
Duration : 1 h 35 min
Bit rate : 11.9 Mb/s
Width : 1 920 pixels
Height : 1 036 pixels
Display aspect ratio : 1.85:1
Frame rate mode : Constant
Frame rate : 24.000 FPS
Color space : YUV
Chroma subsampling : 4:2:0
Bit depth : 8 bits
Scan type : Progressive
Bits/(Pixel*Frame) : 0.250
Stream size : 7.93 GiB (96%)
Writing library : x264 core 164 r3107+55M 1028c06 t_mod_New [(8 & 10)-bit@all X86_64]
Encoding settings : cabac=1 / ref=4 / deblock=1:-3:-3 / analyse=0x3:0x133 / me=umh / subme=11 / psy=1 / fade_compensate=0.00 / psy_rd=1.00:0.00 / mixed_ref=1 / me_range=48 / chroma_me=1 / trellis=2 / 8x8dct=1 / cqm=0 / deadzone=21,11 / fast_pskip=0 / chroma_qp_offset=-3 / threads=32 / lookahead_threads=8 / sliced_threads=0 / nr=0 / decimate=0 / interlaced=0 / bluray_compat=0 / constrained_intra=0 / fgo=0 / bframes=11 / b_pyramid=2 / b_adapt=2 / b_bias=0 / direct=3 / weightb=1 / open_gop=0 / weightp=2 / keyint=240 / keyint_min=1 / scenecut=40 / intra_refresh=0 / rc_lookahead=72 / rc=crf / mbtree=0 / crf=19.0000 / qcomp=0.60 / qpmin=0:0:0 / qpmax=69:69:69 / qpstep=4 / vbv_maxrate=62500 / vbv_bufsize=78125 / crf_max=0.0 / nal_hrd=none / filler=0 / ip_ratio=1.40 / pb_ratio=1.30 / aq=3:0.90 / aq-sensitivity=10.00 / aq-factor=1.00:1.00:1.00 / aq2=0 / aq3=0
Language : English
Default : Yes
Forced : No

Audio
ID : 2
Format : FLAC
Format/Info : Free Lossless Audio Codec
Codec ID : A_FLAC
Duration : 1 h 35 min
Bit rate mode : Variable
Bit rate : 416 kb/s
Channel(s) : 2 channels
Channel layout : L R
Sampling rate : 48.0 kHz
Frame rate : 11.719 FPS (4096 SPF)
Bit depth : 16 bits
Compression mode : Lossless
Stream size : 284 MiB (3%)
Title : Mandarin
Writing library : libFLAC 1.2.1 (UTC 2007-09-17)
Language : Chinese
Default : Yes
Forced : No

Text #1
ID : 3
ID in the original source medium : 4610 (0x1202)
Format : PGS
Muxing mode : zlib
Codec ID : S_HDMV/PGS
Codec ID/Info : Picture based subtitle format used on BDs/HD-DVDs
Duration : 1 h 33 min
Bit rate : 16.6 kb/s
Frame rate : 0.354 FPS
Count of elements : 1979
Stream size : 11.1 MiB (0%)
Title : chs
Language : Chinese
Default : Yes
Forced : No
Original source medium : Blu-ray

Text #2
ID : 4
ID in the original source medium : 4611 (0x1203)
Format : PGS
Muxing mode : zlib
Codec ID : S_HDMV/PGS
Codec ID/Info : Picture based subtitle format used on BDs/HD-DVDs
Duration : 1 h 33 min
Bit rate : 16.8 kb/s
Frame rate : 0.354 FPS
Count of elements : 1979
Stream size : 11.2 MiB (0%)
Title : cht
Language : Chinese
Default : No
Forced : No
Original source medium : Blu-ray

Text #3
ID : 5
ID in the original source medium : 4608 (0x1200)
Format : PGS
Muxing mode : zlib
Codec ID : S_HDMV/PGS
Codec ID/Info : Picture based subtitle format used on BDs/HD-DVDs
Duration : 1 h 30 min
Bit rate : 32.6 kb/s
Frame rate : 0.363 FPS
Count of elements : 1977
Stream size : 21.2 MiB (0%)
Title : bd cht
Language : Chinese
Default : No
Forced : No
Original source medium : Blu-ray

Text #4
ID : 6
ID in the original source medium : 4609 (0x1201)
Format : PGS
Muxing mode : zlib
Codec ID : S_HDMV/PGS
Codec ID/Info : Picture based subtitle format used on BDs/HD-DVDs
Duration : 1 h 30 min
Bit rate : 40.4 kb/s
Frame rate : 0.344 FPS
Count of elements : 1874
Stream size : 26.2 MiB (0%)
Title : eng
Language : English
Default : No
Forced : No
Original source medium : Blu-ray

Menu
00:00:00.000 : en:Chapter 01
00:18:29.125 : en:Chapter 02
00:40:17.791 : en:Chapter 03
00:56:16.291 : en:Chapter 04
01:12:54.250 : en:Chapter 05
01:24:00.208 : en:Chapter 06


部分资源为软字幕,移动端推荐播放器:MxPlayer,nPlayer,infuse ,其他播放器请自行尝试。

部分资源为软字幕,电脑端推荐播放器:PotPlayer,完美解码,KMPLAYER,其他播放器请自行尝试。



1 个附件 售价 大小 下载 时间

Growing.Up.1983.1080p.BluRay.x264.FLAC.2.0-SONYHD[1LOU.ME].torrent 0 金币 23.69K 1099 次 1月前

#1楼
发帖时间:2024-02-23 07:54:49   |   回复数:1
jokingcheung
超凡入圣№
谢谢分享
1月前 #2楼
游客组