Asuka601
隐世仙人♂

[2021] [其它] [惊悚] [BD-1080P] 胡达的沙龙[简繁英字幕].Hudas.Salon.2021.1080p.BluRay.x265.10bit.DTS-SONYHD 4.91GB

-->

完整标题:胡达的沙龙[简繁英字幕].Hudas.Salon.2021.1080p.BluRay.x265.10bit.DTS-SONYHD 4.91GB



◎标  题 胡达的沙龙
◎片  名 Huda's Salon
◎年  代 2021
◎产  地 巴勒斯坦
◎类  别 惊悚
◎语  言 阿拉伯语
◎上映日期 2021-09-09(多伦多电影节) / 2022-03-04(美国)
◎IMDb评分 6.2/10 (1100人评价)
◎IMDb链接 https://www.imdb.com/title/tt11897340/
◎豆瓣评分 6.5/10 (182人评价)
◎豆瓣链接 https://movie.douban.com/subject/34970334/
◎片  长 91分钟
◎导  演 汉尼·阿布-阿萨德 Hany Abu-Assad
◎编  剧 汉尼·阿布-阿萨德 Hany Abu-Assad
◎演  员 阿里·苏莱曼 Ali Suliman
      麦莎·阿德哈迪 Maisa Abd Elhadi
      萨米尔·比沙特 Samer Bishart

◎简  介
    [远山恋人]、[天堂此时]导演汉尼·阿布-阿萨德将自编自导阿拉伯语新片[胡达的沙龙](Huda’s Salon,暂译)。影片卡司包括阿里·苏莱曼([必是天堂])、麦莎·阿德哈迪([特拉维夫在燃烧])等。影片讲述一名女子前往一家美发沙龙,却遭到了店主的敲诈。该片将在巴勒斯坦开拍。

##### MediaInfo ######
General
Unique ID : 246308269166044481820658156698533951715 (0xB94D3F42D80CB18891C3B7269198F8E3)
Complete name : Hudas.Salon.2021.1080p.BluRay.x265.10bit.DTS-SONYHD.mkv
Duration : 1 h 31 min
Overall bit rate : 7 718 kb/s

Video
ID : 1
Format : HEVC
Format/Info : High Efficiency Video Coding
Format profile : Main 10@L5@Main
Codec ID : V_MPEGH/ISO/HEVC
Duration : 1 h 31 min
Bit rate : 6 181 kb/s
Width : 1 920 pixels
Height : 1 000 pixels
Display aspect ratio : 1.920
Frame rate mode : Constant
Frame rate : 23.976 (24000/1001) FPS
Color space : YUV
Chroma subsampling : 4:2:0
Bit depth : 10 bits
Bits/(Pixel*Frame) : 0.134
Stream size : 3.93 GiB (80%)
Title : Hudas.Salon.2021.1080p.BluRay.AVC.DTS-HD.MA.5.1-DIY@Audies
Writing library : x265 3.5g2b25c9ba0+45:[Windows][GCC 10.2.0][64 bit] Yuuki 10bit+8bit+12bit
Encoding settings : rc=crf / crf=15.5000 / qcomp=0.70 / qpstep=4 / stats-write=0 / stats-read=0 / no-lossless / no-cu-lossless / aq-mode=3 / aq-strength=0.90 / cbqpoffs=0 / crqpoffs=0 / ipratio=1.40 / pbratio=1.30 / psy-rd=2.00 / psy-rdoq=0.00 / deblock=0:0 / ref=6 / limit-refs=1 / no-limit-modes / bframes=6 / b-adapt=2 / bframe-bias=0 / b-pyramid / b-intra / weightp / weightb / min-keyint=24 / max-keyint=240 / rc-lookahead=24 / gop-lookahead=0 / scenecut=40 / hist-scenecut=0 / radl=0 / max-cu-size=64 / min-cu-size=8 / me=3 / subme=7 / merange=48 / rdoq-level=0 / rd=4 / rdpenalty=0 / dynamic-rd=0.00 / no-rd-refine / ----- / cutree / sao / no-rect / no-amp / no-open-gop / wpp / no-pmode / no-pme / no-psnr / no-ssim / nr-intra=0 / nr-inter=0 / no-constrained-intra / no-strong-intra-smoothing / max-tu-size=32 / tu-inter-depth=1 / tu-intra-depth=1 / limit-tu=0 / qg-size=32 / qpmax=69 / qpmin=0 / ----- / cpuid=1111039 / frame-threads=4 / numa-pools=+ / log-level=2 / input-csp=1 / input-res=1920x1000 / interlace=0 / level-idc=0 / high-tier=1 / uhd-bd=0 / no-allow-non-conformance / no-repeat-headers / aud / no-hrd / info / hash=0 / no-temporal-layers / lookahead-slices=0 / no-splice / no-intra-refresh / no-ssim-rd / signhide / no-tskip / max-merge=3 / temporal-mvp / no-frame-dup / no-hme / no-analyze-src-pics / no-sao-non-deblock / selective-sao=4 / early-skip / rskip / no-fast-intra / no-tskip-fast / no-splitrd-skip / zone-count=0 / no-strict-cbr / no-rc-grain / no-const-vbv / sar=0 / overscan=0 / videoformat=5 / range=0 / colorprim=2 / transfer=2 / colormatrix=2 / chromaloc=0 / display-window=0 / cll=0,0 / min-luma=0 / max-luma=1023 / log2-max-poc-lsb=8 / vui-timing-info / vui-hrd-info / slices=1 / no-opt-qp-pps / no-opt-ref-list-length-pps / no-multi-pass-opt-rps / scenecut-bias=0.05 / hist-threshold=0.03 / no-opt-cu-delta-qp / no-aq-motion / no-hdr10 / no-hdr10-opt / no-dhdr10-opt / no-idr-recovery-sei / analysis-reuse-level=0 / analysis-save-reuse-level=0 / analysis-load-reuse-level=0 / scale-factor=0 / refine-intra=0 / refine-inter=0 / refine-mv=1 / refine-ctu-distortion=0 / no-limit-sao / ctu-info=0 / no-lowpass-dct / refine-analysis-type=0 / copy-pic=1 / max-ausize-factor=1.0 / no-dynamic-refine / no-single-sei / no-hevc-aq / no-svt / no-field / qp-adaptation-range=1.00 / scenecut-aware-qp=0conformance-window-offsets / right=0 / bottom=0 / decoder-max-rate=0 / no-vbv-live-multi-pass
Language : Arabic
Default : Yes
Forced : No

Audio
ID : 2
ID in the original source medium : 4352 (0x1100)
Format : DTS
Format/Info : Digital Theater Systems
Codec ID : A_DTS
Duration : 1 h 30 min
Bit rate mode : Constant
Bit rate : 1 509 kb/s
Channel(s) : 6 channels
Channel layout : C L R Ls Rs LFE
Sampling rate : 48.0 kHz
Frame rate : 93.750 FPS (512 SPF)
Bit depth : 24 bits
Compression mode : Lossy
Stream size : 982 MiB (20%)
Title : DTS.5.1
Language : Arabic
Default : Yes
Forced : No
Original source medium : Blu-ray

Text #1
ID : 3
ID in the original source medium : 4609 (0x1201)
Format : PGS
Muxing mode : zlib
Codec ID : S_HDMV/PGS
Codec ID/Info : Picture based subtitle format used on BDs/HD-DVDs
Duration : 1 h 26 min
Bit rate : 22.2 kb/s
Frame rate : 0.357 FPS
Count of elements : 1857
Stream size : 13.8 MiB (0%)
Title : chs
Language : Chinese
Default : Yes
Forced : No
Original source medium : Blu-ray

Text #2
ID : 4
ID in the original source medium : 4610 (0x1202)
Format : PGS
Muxing mode : zlib
Codec ID : S_HDMV/PGS
Codec ID/Info : Picture based subtitle format used on BDs/HD-DVDs
Duration : 1 h 26 min
Bit rate : 22.3 kb/s
Frame rate : 0.357 FPS
Count of elements : 1857
Stream size : 13.8 MiB (0%)
Title : cht
Language : Chinese
Default : No
Forced : No
Original source medium : Blu-ray

Text #3
ID : 5
ID in the original source medium : 4608 (0x1200)
Format : PGS
Muxing mode : zlib
Codec ID : S_HDMV/PGS
Codec ID/Info : Picture based subtitle format used on BDs/HD-DVDs
Duration : 1 h 24 min
Bit rate : 19.2 kb/s
Frame rate : 0.293 FPS
Count of elements : 1488
Stream size : 11.6 MiB (0%)
Title : eng
Language : English
Default : No
Forced : No
Original source medium : Blu-ray

Menu
00:00:00.000 : en:Chapter 01
00:10:26.125 : en:Chapter 02
00:22:32.642 : en:Chapter 03
00:35:25.414 : en:Chapter 04
00:55:06.303 : en:Chapter 05
01:07:49.356 : en:Chapter 06
01:17:32.272 : en:Chapter 07
01:27:07.096 : en:Chapter 08


部分资源为软字幕,移动端推荐播放器:MxPlayer,nPlayer,infuse ,其他播放器请自行尝试。

部分资源为软字幕,电脑端推荐播放器:PotPlayer,完美解码,KMPLAYER,其他播放器请自行尝试。



1 个附件 售价 大小 下载 时间

Hudas.Salon.2021.1080p.BluRay.x265.10bit.DTS-SONYHD[1LOU.ME].torrent 0 金币 15.36K 1029 次 1月前

#1楼
发帖时间:2024-02-22 20:47:49   |   回复数:0
游客组