Asuka601
隐世仙人♂

[2012] [欧美] [剧情] [BD-1080P] 逃离德黑兰[国英多音轨/简繁英字幕].Argo.2012.BluRay.1080p.DTS-HDMA5.1.x264-DreamHD 11.25GB

-->

完整标题:逃离德黑兰[国英多音轨/简繁英字幕].Argo.2012.BluRay.1080p.DTS-HDMA5.1.x264-DreamHD 11.25GB



◎标  题 逃离德黑兰
◎译  名 ARGO - 救参任务(港) / 亚果出任务(台) / 逃离伊朗
◎片  名 Argo
◎年  代 2012
◎产  地 美国
◎类  别 剧情 / 惊悚 / 历史
◎语  言 英语 / 波斯语 / 阿拉伯语
◎上映日期 2012-08-31(特柳赖德电影节) / 2012-10-12(美国)
◎IMDb评分 7.7/10 (632923人评价)
◎IMDb链接 https://www.imdb.com/title/tt1024648/
◎豆瓣评分 8.3/10 (294792人评价)
◎豆瓣链接 https://movie.douban.com/subject/6549903/
◎片  长 120分钟 / 129分钟(加长版)
◎导  演 本·阿弗莱克 Ben Affleck
◎编  剧 克里斯·特里奥 Chris Terrio
      约书亚·比尔曼 Joshuah Bearman
      托尼·门德兹 Tony Mendez
◎演  员 本·阿弗莱克 Ben Affleck
      布莱恩·克兰斯顿 Bryan Cranston
      凯尔·钱德勒 Kyle Chandler
      约翰·古德曼 John Goodman
      克里·杜瓦尔 Clea DuVall
      艾伦·阿金 Alan Arkin
      罗利·科奇瑞恩 Rory Cochrane
      克里斯托弗·邓汉 Christopher Denham
      维克多·加博 Victor Garber
      凯瑞·碧许 Kerry Bishé
      泰特·多诺万 Tate Donovan
      克里斯·梅西纳 Chris Messina
      理查德·迪兰 Richard Dillane
      汤姆·伦克 Tom Lenk
      尤里·沙尔达罗夫 Yuri Sardarov
      艾什莉·伍德 Ashley Wood
      克里斯托弗·斯坦利 Christopher Stanley
      扬·费尔德曼 Yan Feldman
      巴赫拉姆·霍斯拉维亚尼 Bahram Khosraviani
      希拉·凡德 Sheila Vand
      佩姬·梁 Page Leong
      科比·阿扎利 Koby Azarly
      杰克·托帕利安 Jack Topalian
      迈克·华莱士 Mike Wallace
      吉米·卡特 Jimmy Carter
      Allegra Carpenter Allegra Carpenter
      大卫·苏利文 David Sullivan
      凯利·库兰 Kelly Curran
      迈克尔·基耶福 Michael Chieffo
      拉里·苏利文 Larry Sullivan
      泰勒·席林 Taylor Schilling
      Ruty Rutenberg Ruty Rutenberg
      斯科特·麦克纳里 Scoot McNairy
      阿德里安娜·巴比欧 Adrienne Barbeau
      迈克尔·帕克斯 Michael Parks
      斯科特·安东尼·利特 Scott Anthony Leet
      约翰·博伊德 John Boyd
      J.R.卡西亚 J.R. Cacia
      理查德·坎德 Richard Kind
      鲍勃·冈顿 Bob Gunton
      提图斯·维里沃 Titus Welliver
      泽利科·伊万内克 Zeljko Ivanek

◎简  介
    1979年11月4日,伊朗的革命军攻进了美国在伊朗德黑兰的大使馆,将大使馆的工作人员劫为人质。有超过50名人员被关押,但有6人逃脱,并躲在加拿大驻伊朗大使Ken Taylor(维克多·加博 Victor Garber 饰)的家里。CIA高层Jack O'Donnell( 布莱恩·科兰斯顿 Bryan Cranston 饰)找到专家Tony Mendez(本·阿弗莱克 Ben Affleck 饰),让他协助将那六个人带回美国。经过讨论后,CIA决定采取Tony的办法,以拍摄电影的名义,Tony到伊朗将那六个人带回。Tony联系了他在好莱坞的朋友,化妆师John Chambers(约翰·古德曼 John Goodman 饰),并联系了电影制片人Lester(艾伦·阿金 Alan Arkin 饰)。Tony在许多剧本中选中了《ARGO》,一部和《星球大战》极为类似的电影。于是他作为制片人带着剧本和各种道具前往伊朗,找到了那六个人,开始了艰苦的逃离德黑兰之路......   本片根据真实故事改编,获得第85届奥斯卡最佳影片、最佳剪辑、最佳改编剧本等3项大奖。

##### MediaInfo ######

General
Unique ID : 130105824826481055687302479331495625255 (0x61E1786BF44D83E6D2F0F7328C6DC227)
Complete name : Argo.2012.BluRay.1080p.DTS-HDMA5.1.x264-DreamHD.mkv
Format : Matroska
Format version : Version 4
File size : 11.3 GiB
Duration : 2 h 0 min
Overall bit rate mode : Variable
Overall bit rate : 13.4 Mb/s
Movie name : Encoded By Anonymous @ Only For CHD
Encoded date : UTC 2024-02-22 01:31:39
Writing application : mkvmerge v81.0 ('Milliontown') 64-bit
Writing library : libebml v1.4.4 + libmatroska v1.7.1
Cover : Yes
Attachments : cover.jpg

Video #1
ID : 1
Format : AVC
Format/Info : Advanced Video Codec
Format profile : [email protected]
Format settings : CABAC / 5 Ref Frames
Format settings, CABAC : Yes
Format settings, Reference frames : 5 frames
Codec ID : V_MPEG4/ISO/AVC
Duration : 2 h 0 min
Bit rate : 6 331 kb/s
Width : 1 920 pixels
Height : 800 pixels
Display aspect ratio : 2.40:1
Frame rate mode : Constant
Frame rate : 23.976 (24000/1001) FPS
Color space : YUV
Chroma subsampling : 4:2:0
Bit depth : 8 bits
Scan type : Progressive
Bits/(Pixel*Frame) : 0.172
Stream size : 5.32 GiB (47%)
Writing library : x264 core 164 r3106 eaa68fa
Encoding settings : cabac=1 / ref=5 / deblock=1:-3:-3 / analyse=0x3:0x133 / me=umh / subme=11 / psy=1 / psy_rd=1.00:0.00 / mixed_ref=1 / me_range=64 / chroma_me=1 / trellis=2 / 8x8dct=1 / cqm=0 / deadzone=21,11 / fast_pskip=0 / chroma_qp_offset=-2 / threads=24 / lookahead_threads=6 / sliced_threads=0 / nr=0 / decimate=0 / interlaced=0 / bluray_compat=0 / constrained_intra=0 / bframes=12 / b_pyramid=2 / b_adapt=2 / b_bias=0 / direct=3 / weightb=1 / open_gop=0 / weightp=2 / keyint=250 / keyint_min=23 / scenecut=40 / intra_refresh=0 / rc=crf / mbtree=0 / crf=18.0 / qcomp=0.70 / qpmin=0 / qpmax=69 / qpstep=4 / ip_ratio=1.30 / pb_ratio=1.20 / aq=3:0.80
Default : Yes
Forced : No
Color range : Limited
Color primaries : BT.709
Matrix coefficients : BT.709

Video #2
ID : 2
ID in the original source medium : 6912 (0x1B00)
Format : AVC
Format/Info : Advanced Video Codec
Format profile : [email protected]
Format settings : CABAC / 2 Ref Frames
Format settings, CABAC : Yes
Format settings, Reference frames : 2 frames
Codec ID : V_MPEG4/ISO/AVC
Duration : 2 h 0 min
Bit rate mode : Variable
Bit rate : 1 997 kb/s
Width : 720 pixels
Height : 480 pixels
Display aspect ratio : 16:9
Original display aspect ratio : 16:9
Frame rate mode : Constant
Frame rate : 23.976 (24000/1001) FPS
Color space : YUV
Chroma subsampling : 4:2:0
Bit depth : 8 bits
Scan type : Progressive
Bits/(Pixel*Frame) : 0.241
Stream size : 1.68 GiB (15%)
Default : Yes
Forced : No
Original source medium : Blu-ray

Audio #1
ID : 3
ID in the original source medium : 4352 (0x1100)
Format : DTS XLL
Format/Info : Digital Theater Systems
Commercial name : DTS-HD Master Audio
Codec ID : A_DTS
Duration : 2 h 0 min
Bit rate mode : Variable
Bit rate : 3 738 kb/s
Channel(s) : 6 channels
Channel layout : C L R Ls Rs LFE
Sampling rate : 48.0 kHz
Frame rate : 93.750 FPS (512 SPF)
Bit depth : 24 bits
Compression mode : Lossless
Stream size : 3.14 GiB (28%)
Language : English
Default : Yes
Forced : No
Original source medium : Blu-ray

Audio #2
ID : 4
ID in the original source medium : 4354 (0x1102)
Format : AC-3
Format/Info : Audio Coding 3
Commercial name : Dolby Digital
Codec ID : A_AC3
Duration : 2 h 0 min
Bit rate mode : Constant
Bit rate : 640 kb/s
Channel(s) : 6 channels
Channel layout : L R C LFE Ls Rs
Sampling rate : 48.0 kHz
Frame rate : 31.250 FPS (1536 SPF)
Compression mode : Lossy
Stream size : 551 MiB (5%)
Title : 原盘国配
Language : Chinese
Service kind : Complete Main
Default : Yes
Forced : No
Original source medium : Blu-ray

Audio #3
ID : 5
ID in the original source medium : 4358 (0x1106)
Format : AC-3
Format/Info : Audio Coding 3
Commercial name : Dolby Digital
Format settings : Dolby Surround
Codec ID : A_AC3
Duration : 2 h 0 min
Bit rate mode : Constant
Bit rate : 192 kb/s
Channel(s) : 2 channels
Channel layout : L R
Sampling rate : 48.0 kHz
Frame rate : 31.250 FPS (1536 SPF)
Compression mode : Lossy
Stream size : 165 MiB (1%)
Title : 导评1
Language : English
Service kind : Complete Main
Default : Yes
Forced : No
Original source medium : Blu-ray

Audio #4
ID : 6
ID in the original source medium : 6656 (0x1A00)
Format : DTS LBR
Format/Info : Digital Theater Systems
Commercial name : DTS Express
Codec ID : A_DTS
Duration : 2 h 0 min
Bit rate mode : Constant
Bit rate : 192 kb/s
Channel(s) : 2 channels
Channel layout : L R
Sampling rate : 48.0 kHz
Frame rate : 11.719 FPS (4096 SPF)
Bit depth : 24 bits
Compression mode : Lossy
Stream size : 165 MiB (1%)
Title : 导评2
Language : English
Default : Yes
Forced : No
Original source medium : Blu-ray

Text #1
ID : 7
ID in the original source medium : 4608 (0x1200)
Format : PGS
Codec ID : S_HDMV/PGS
Codec ID/Info : Picture based subtitle format used on BDs/HD-DVDs
Duration : 1 h 59 min
Bit rate : 35.7 kb/s
Frame rate : 0.387 FPS
Count of elements : 2779
Stream size : 30.6 MiB (0%)
Language : English
Default : Yes
Forced : No
Original source medium : Blu-ray

Text #2
ID : 8
ID in the original source medium : 4610 (0x1202)
Format : PGS
Codec ID : S_HDMV/PGS
Codec ID/Info : Picture based subtitle format used on BDs/HD-DVDs
Duration : 1 h 59 min
Bit rate : 26.1 kb/s
Frame rate : 0.364 FPS
Count of elements : 2619
Stream size : 22.4 MiB (0%)
Title : 原盘自带繁体中文
Language : Chinese
Default : Yes
Forced : No
Original source medium : Blu-ray

Text #3
ID : 9
ID in the original source medium : 4614 (0x1206)
Format : PGS
Codec ID : S_HDMV/PGS
Codec ID/Info : Picture based subtitle format used on BDs/HD-DVDs
Duration : 1 h 59 min
Bit rate : 21.7 kb/s
Frame rate : 0.360 FPS
Count of elements : 2587
Stream size : 18.6 MiB (0%)
Title : 原盘自带繁体中文
Language : Chinese
Default : Yes
Forced : No
Original source medium : Blu-ray

Text #4
ID : 10
ID in the original source medium : 4615 (0x1207)
Format : PGS
Codec ID : S_HDMV/PGS
Codec ID/Info : Picture based subtitle format used on BDs/HD-DVDs
Duration : 1 h 59 min
Bit rate : 30.4 kb/s
Frame rate : 0.360 FPS
Count of elements : 2587
Stream size : 26.1 MiB (0%)
Title : 简体中文
Language : Chinese
Default : Yes
Forced : Yes
Original source medium : Blu-ray

Text #5
ID : 11
ID in the original source medium : 4617 (0x1209)
Format : PGS
Codec ID : S_HDMV/PGS
Codec ID/Info : Picture based subtitle format used on BDs/HD-DVDs
Duration : 2 h 0 min
Bit rate : 52.6 kb/s
Frame rate : 0.591 FPS
Count of elements : 4262
Stream size : 45.2 MiB (0%)
Title : 导评1繁体中文
Language : Chinese
Default : Yes
Forced : No
Original source medium : Blu-ray

Text #6
ID : 12
ID in the original source medium : 4624 (0x1210)
Format : PGS
Codec ID : S_HDMV/PGS
Codec ID/Info : Picture based subtitle format used on BDs/HD-DVDs
Duration : 1 h 53 min
Bit rate : 48.7 kb/s
Frame rate : 0.484 FPS
Count of elements : 3312
Stream size : 39.7 MiB (0%)
Title : 导评2英字
Language : English
Default : Yes
Forced : No
Original source medium : Blu-ray

Text #7
ID : 13
ID in the original source medium : 4626 (0x1212)
Format : PGS
Codec ID : S_HDMV/PGS
Codec ID/Info : Picture based subtitle format used on BDs/HD-DVDs
Duration : 1 h 58 min
Bit rate : 37.0 kb/s
Frame rate : 0.455 FPS
Count of elements : 3242
Stream size : 31.4 MiB (0%)
Title : 繁体中文
Language : Chinese
Default : Yes
Forced : No
Original source medium : Blu-ray

Text #8
ID : 14
ID in the original source medium : 4630 (0x1216)
Format : PGS
Codec ID : S_HDMV/PGS
Codec ID/Info : Picture based subtitle format used on BDs/HD-DVDs
Duration : 1 h 58 min
Bit rate : 38.3 kb/s
Frame rate : 0.455 FPS
Count of elements : 3244
Stream size : 32.5 MiB (0%)
Title : 导评2简体中文
Language : Chinese
Default : Yes
Forced : No
Original source medium : Blu-ray

Menu
00:00:00.000 : en:第 01 章
00:12:39.759 : en:第 02 章
00:19:36.091 : en:第 03 章
00:28:59.571 : en:第 04 章
00:42:48.607 : en:第 05 章
00:50:01.540 : en:第 06 章
01:00:00.054 : en:第 07 章
01:09:09.520 : en:第 08 章
01:19:46.823 : en:第 09 章
01:30:14.117 : en:第 10 章
01:39:00.851 : en:第 11 章
01:51:34.771 : en:第 12 章


部分资源为软字幕,移动端推荐播放器:MxPlayer,nPlayer,infuse ,其他播放器请自行尝试。

部分资源为软字幕,电脑端推荐播放器:PotPlayer,完美解码,KMPLAYER,其他播放器请自行尝试。



1 个附件 售价 大小 下载 时间

Argo.2012.BluRay.1080p.DTS-HDMA5.1.x264-DreamHD[1LOU.ME].torrent 0 金币 31.30K 1351 次 1月前

#1楼
发帖时间:2024-02-22 20:44:25   |   回复数:1
jokingcheung
超凡入圣№
谢谢分享
1月前 #2楼
游客组