Asuka601
隐世仙人♂

[2023] [大陆] [剧情] [WEB-4K] 河边的错误[60帧率版本][国语音轨/中文字幕].Only.the.River.Flows.2023.60FPS.2160p.WEB-DL.H265.10bit

-->

完整标题:河边的错误[60帧率版本][国语音轨/中文字幕].Only.the.River.Flows.2023.60FPS.2160p.WEB-DL.H265.10bit.DDP5.1-GPTHD 18.63GB



◎标  题 河边的错误
◎译  名 江东喜事 / Only the River Flows
◎年  代 2023
◎产  地 中国大陆
◎类  别 剧情 / 犯罪
◎语  言 汉语普通话
◎上映日期 2023-10-21(中国大陆) / 2023-05-20(戛纳电影节) / 2023-10-11(平遥国际电影展)
◎IMDb评分 7.1/10 (1046人评价)
◎IMDb链接 https://www.imdb.com/title/tt27590147/
◎豆瓣评分 7.5/10 (233290人评价)
◎豆瓣链接 https://movie.douban.com/subject/35256092/
◎片  长 102分钟
◎导  演 魏书钧 Shujun Wei
◎编  剧 康春雷 Chunlei Kang
      魏书钧 Shujun Wei
      余华 Hua Yu
◎演  员 朱一龙 Yilong Zhu
      曾美慧孜 Meihuizi Zeng
      侯天来 Tianlai Hou
      佟林楷 Linkai Tong
      康春雷 Chunlei Kang
      王健宇 Kira Wang
      莫西子诗 Chunlin Mo
      白沙 Baisha
      曹阳 Yang Cao
      周庆昀 Qingyun Zhou
      曾淇 Qi Zeng
      黄俊 Jun Huang
      黄米依 Miyi Huang
      阎鹤祥 Hexiang Yan
      周游 You Zhou
      孟祥亮 Xiangliang Meng
      楚布花羯 ChoBu HuaJe
      陈涵 Han Chen
      王从双 Congshuang Wang

◎简  介
    影片改编自余华同名先锋代表作,看似是马哲(朱一龙 饰)在找寻凶案的真相,但故事没有答案,因为命运的看法比我们更准确……   该片入围第76届戛纳电影节“一种关注”官方单元。

点击图片可查看大图

软字幕无法在截图上展现,HDR版本/杜比视界版本截图会出现颜色异常,请使用支持的设备播放!

##### MediaInfo ######
General
Unique ID : 137365651686579128161608087510469149825 (0x6757A9855F3A5CC4D78B36759EC18481)
Complete name : 河边的错误.Only.the.River.Flows.2023.60FPS.2160p.WEB-DL.H265.10bit.DDP5.1-GPTHD.mkv
Duration : 1 h 41 min
Overall bit rate : 26.2 Mb/s

Video
ID : 1
Format : HEVC
Format/Info : High Efficiency Video Coding
Format profile : Main [email protected]@Main
Codec ID : V_MPEGH/ISO/HEVC
Duration : 1 h 41 min
Bit rate : 25.0 Mb/s
Width : 3 840 pixels
Height : 2 080 pixels
Display aspect ratio : 1.85:1
Frame rate mode : Constant
Frame rate : 60.000 FPS
Color space : YUV
Chroma subsampling : 4:2:0
Bit depth : 10 bits
Bits/(Pixel*Frame) : 0.052
Stream size : 17.8 GiB (95%)
Default : Yes
Forced : No
Color range : Limited
Color primaries : BT.709
Transfer characteristics : BT.709
Matrix coefficients : BT.709

Audio #1
ID : 2
Format : E-AC-3
Format/Info : Enhanced AC-3
Commercial name : Dolby Digital Plus
Codec ID : A_EAC3
Duration : 1 h 41 min
Bit rate mode : Constant
Bit rate : 448 kb/s
Channel(s) : 6 channels
Channel layout : L R C LFE Ls Rs
Sampling rate : 48.0 kHz
Frame rate : 31.250 FPS (1536 SPF)
Compression mode : Lossy
Stream size : 326 MiB (2%)
Title : 国语·杜比环绕声
Language : Chinese
Service kind : Complete Main
Default : Yes
Forced : No

Audio #2
ID : 3
Format : AAC LC
Format/Info : Advanced Audio Codec Low Complexity
Codec ID : A_AAC-2
Duration : 1 h 41 min
Bit rate : 256 kb/s
Channel(s) : 6 channels
Channel layout : C L R Ls Rs LFE
Sampling rate : 44.1 kHz
Frame rate : 43.066 FPS (1024 SPF)
Compression mode : Lossy
Stream size : 186 MiB (1%)
Title : 国语·环绕声
Language : Chinese
Default : No
Forced : No

Audio #3
ID : 4
Format : E-AC-3
Format/Info : Enhanced AC-3
Commercial name : Dolby Digital Plus
Codec ID : A_EAC3
Duration : 1 h 41 min
Bit rate mode : Constant
Bit rate : 256 kb/s
Channel(s) : 2 channels
Channel layout : L R
Sampling rate : 48.0 kHz
Frame rate : 31.250 FPS (1536 SPF)
Compression mode : Lossy
Stream size : 186 MiB (1%)
Title : 国语·杜比音效
Language : Chinese
Service kind : Complete Main
Default : No
Forced : No

Audio #4
ID : 5
Format : AAC LC
Format/Info : Advanced Audio Codec Low Complexity
Codec ID : A_AAC-2
Duration : 1 h 41 min
Bit rate : 256 kb/s
Channel(s) : 2 channels
Channel layout : L R
Sampling rate : 44.1 kHz
Frame rate : 43.066 FPS (1024 SPF)
Compression mode : Lossy
Stream size : 186 MiB (1%)
Title : 国语
Language : Chinese
Default : No
Forced : No


部分资源为软字幕,移动端推荐播放器:MxPlayer,nPlayer,infuse ,其他播放器请自行尝试。

部分资源为软字幕,电脑端推荐播放器:PotPlayer,完美解码,KMPLAYER,其他播放器请自行尝试。



1 个附件 售价 大小 下载 时间

Only.the.River.Flows.2023.60FPS.2160p.WEB-DL.H265.10bit.DDP5.1-GPTHD[1LOU.ME].torrent 0 金币 49.52K 3413 次 2月前

#1楼
发帖时间:2023-12-06 21:53:45   |   回复数:1
liyouchai
隐世仙人♂
谢谢楼主分享资源
2月前 #2楼
游客组