Asuka601
隐世仙人♂

[2006] [欧美] [剧情] [WEB-4K] 无法无天[国英多音轨/中文字幕].Waist.Deep.2006.2160p.WEB-DL.H265.DDP5.1.2Audio-DreamHD 8.47GB

-->

完整标题:无法无天[国英多音轨/中文字幕].Waist.Deep.2006.2160p.WEB-DL.H265.DDP5.1.2Audio-DreamHD 8.47GB



◎标  题 无法无天
◎译  名 黑帮有难
◎片  名 Waist Deep
◎年  代 2006
◎产  地 美国
◎类  别 剧情 / 动作 / 惊悚 / 犯罪
◎语  言 英语
◎上映日期 2006-04-28
◎IMDb评分 5.8/10 (10242人评价)
◎IMDb链接 https://www.imdb.com/title/tt0456020/
◎豆瓣评分 6.4/10 (760人评价)
◎豆瓣链接 https://movie.douban.com/subject/1798225/
◎片  长 USA: 97 分钟 / Argentina: 97 分钟
◎导  演 沃迪·科蒂斯·霍尔 Vondie Curtis-Hall
◎编  剧 达林·斯科特 Darin Scott
      沃迪·科蒂斯·霍尔 Vondie Curtis-Hall
◎演  员 保罗·泰瑞尔·科雷顿 Paul Terrell Clayton
      泰瑞斯·吉布森 Tyrese Gibson
      梅根·古德 Meagan Good
      Thommy Abate
      Shawn Parr
      Schatar Sapphira
      阿尔多·冈萨雷斯 Aldo Gonzalez
      卡斯·莱蒙斯 Kasi Lemmons
      拉伦兹·泰特 Larenz Tate
      Carolena Sabah Carolena Sabah
      The Game The Game
      Yolanda Whittaker Yolanda Whittaker
      达理斯·勒夫 Darris Love
      Michael Eric Dyson Michael Eric Dyson
      姬莫拉·李 Kimora Lee
      埃里克·贝特斯 Erik Betts

◎简  介
    黑人“O2”(泰瑞斯•吉布森 Tyrese Gibson 饰)自小就是一名孤儿,生活在混乱的黑人底层社区,他最终也走上了犯罪的道路。刑满获释后,“O2”决定洗心革面,和儿子朱利安一起开始新的生活。然而天不从人愿,“O2”再次卷入了一起黑帮事件。原来,当地的黑帮抢劫了“O2”的车,而车上的朱利安也被一同劫走了。面对黑帮提出的巨额赎金,“O2”实在无力支付。为了救回儿子,“O2”找到了以前亲密无间的表弟,希望他能助自己一臂之力。没想到表弟却是个贪生怕死之徒,怎么也不肯出手相助。无奈之下,他只好找到了以前和他有过一夜情的妓女可可。可可老谋深算、胆识过人,十分同情“O2”的遭遇,于是,他们的拯救行动开始了!

点击图片可查看大图

软字幕无法在截图上展现,HDR版本/杜比视界版本截图会出现颜色异常,请使用支持的设备播放!

##### MediaInfo ######
General
Unique ID : 103084789723079446802983158431429096339 (0x4D8D68889144E8AE14E989F5D04AF393)
Complete name : Waist.Deep.2006.2160p.WEB-DL.H265.DDP5.1.2Audio-DreamHD.mkv
Duration : 1 h 34 min
Overall bit rate : 12.8 Mb/s

Video
ID : 1
Format : HEVC
Format/Info : High Efficiency Video Coding
Format profile : Main@L5@Main
Codec ID : V_MPEGH/ISO/HEVC
Duration : 1 h 34 min
Bit rate : 12.1 Mb/s
Width : 3 824 pixels
Height : 2 160 pixels
Display aspect ratio : 16:9
Frame rate mode : Constant
Frame rate : 23.976 (23976/1000) FPS
Original frame rate : 23.976 (24000/1001) FPS
Color space : YUV
Chroma subsampling : 4:2:0
Bit depth : 8 bits
Bits/(Pixel*Frame) : 0.061
Stream size : 8.04 GiB (95%)
Default : Yes
Forced : No
Color range : Limited

Audio #1
ID : 2
Format : E-AC-3
Format/Info : Enhanced AC-3
Commercial name : Dolby Digital Plus
Codec ID : A_EAC3
Duration : 1 h 34 min
Bit rate mode : Constant
Bit rate : 256 kb/s
Channel(s) : 6 channels
Channel layout : L R C LFE Ls Rs
Sampling rate : 48.0 kHz
Frame rate : 31.250 FPS (1536 SPF)
Compression mode : Lossy
Stream size : 174 MiB (2%)
Title : [DDP5.1]
Language : English
Service kind : Complete Main
Default : Yes
Forced : No

Audio #2
ID : 3
Format : AAC LC
Format/Info : Advanced Audio Codec Low Complexity
Codec ID : A_AAC-2
Duration : 1 h 34 min
Bit rate : 192 kb/s
Channel(s) : 2 channels
Channel layout : L R
Sampling rate : 44.1 kHz
Frame rate : 43.066 FPS (1024 SPF)
Compression mode : Lossy
Stream size : 129 MiB (1%)
Title : [AAC2.0]
Language : English
Default : No
Forced : No

Audio #3
ID : 4
Format : AAC LC
Format/Info : Advanced Audio Codec Low Complexity
Codec ID : A_AAC-2
Duration : 1 h 34 min
Bit rate : 192 kb/s
Channel(s) : 2 channels
Channel layout : L R
Sampling rate : 44.1 kHz
Frame rate : 43.066 FPS (1024 SPF)
Compression mode : Lossy
Stream size : 129 MiB (1%)
Title : Mandarin [AAC2.0]
Language : Chinese
Default : No
Forced : No


部分资源为软字幕,移动端推荐播放器:MxPlayer,nPlayer,infuse ,其他播放器请自行尝试。

部分资源为软字幕,电脑端推荐播放器:PotPlayer,完美解码,KMPLAYER,其他播放器请自行尝试。



1 个附件 售价 大小 下载 时间

Waist.Deep.2006.2160p.WEB-DL.H265.DDP5.1.2Audio-DreamHD[1LOU.ME].torrent 0 金币 24.06K 1239 次 2月前

#1楼
发帖时间:2023-12-06 21:53:12   |   回复数:0
游客组