Asuka601
隐世仙人♂

[2014] [欧美] [动作] [WEB-4K] 超凡蜘蛛侠2[中文字幕].The.Amazing.SpiderMan.2.2014.UHD.BluRay.2160p.x265.10bit.HDR10.Atmo

-->

完整标题:超凡蜘蛛侠2[中文字幕].The.Amazing.SpiderMan.2.2014.UHD.BluRay.2160p.x265.10bit.HDR10.Atmos.TrueHD.7.1-NukeHD 13.42GB



◎标  题 超凡蜘蛛侠2
◎译  名 蜘蛛侠2 : 决战电魔(港) / 蜘蛛人惊奇再起2:电光之战(台) / 超凡蜘蛛侠2:电光人崛起 / The Amazing Spider-Man 2: Rise of Electro / London Calling
◎片  名 The Amazing Spider-Man 2
◎年  代 2014
◎产  地 美国
◎类  别 动作 / 科幻 / 奇幻 / 冒险
◎语  言 英语
◎上映日期 2014-05-04(中国大陆) / 2014-05-02(美国)
◎IMDb评分 6.6/10 (506800人评价)
◎IMDb链接 https://www.imdb.com/title/tt1872181/
◎豆瓣评分 7.7/10 (287409人评价)
◎豆瓣链接 https://movie.douban.com/subject/6082518/
◎片  长 142分钟
◎导  演 马克·韦布 Marc Webb
◎编  剧 艾里克斯·库兹曼 Alex Kurtzman
      罗伯托·奥奇 Roberto Orci
      杰夫·皮克纳 Jeff Pinkner
      詹姆斯·范德比尔特 James Vanderbilt
      斯坦·李 Stan Lee
      史蒂夫·迪特寇 Steve Ditko
◎演  员 安德鲁·加菲尔德 Andrew Garfield
      艾玛·斯通 Emma Stone
      杰米·福克斯 Jamie Foxx
      戴恩·德哈恩 Dane DeHaan
      科鲁姆·费奥瑞 Colm Feore
      菲丽希缇·琼斯 Felicity Jones
      保罗·吉亚玛提 Paul Giamatti
      莎莉·菲尔德 Sally Field
      斯坦·李 Stan Lee
      艾伯丝·戴维兹 Embeth Davidtz
      坎贝尔·斯科特 Campbell Scott
      马尔顿·索克斯 Marton Csokas
      路易斯·坎瑟米 Louis Cancelmi
      麦克斯·查尔斯 Max Charles
      B·J·诺瓦克 B.J. Novak
      莎拉·加顿 Sarah Gadon
      迈克尔·麦斯 Michael Massee
      比尔·赫克 Bill Heck
      泰迪·库卢卡 Teddy Coluca
      艾迪·布莱恩特 Aidy Bryant
      马克·多赫蒂 Mark Doherty
      詹姆斯·科尔比 James Colby
      卡丽·科尔曼 Kari Coleman
      斯凯勒·吉桑多 Skyler Gisondo
      查理·迪皮尤 Charlie DePew
      Robert Newman Robert Newman
      阿德里安·马丁斯 Adrian Martinez
      詹姆斯·迈克尔·麦考利 James Michael McCauley
      Greg Connolly Greg Connolly
      蒂摩西·亚当斯 Timothy Adams
      塔格·库克尔 Tug Coker
      克莱姆·张 Clem Cheung
      Dusan Hyska Dusan Hyska
      Dario Barosso Dario Barosso
      大卫·石 David Shih
      丹尼尔·格罗尔 Daniel Gerroll
      史蒂文·豪克 Steven Hauck
      雷金纳德·巴恩斯 Reginald Barnes
      克雷利·伯杰 Kirrilee Berger
      瑞克·博兰德 Rick Bolander
      Sean Buttimer
      克里斯·库珀 Chris Cooper
      克里斯·卡伦 Chris Cullen
      朱莉亚·戴维斯 Julia Davis
      弗兰克·迪尔 Frank Deal
      马丁·辛 Martin Sheen
      中村狮童 Shido Nakamura
      克里斯·泽尔卡 Chris Zylka
      乔什·赫尔曼 Josh Helman
      丹尼斯·利瑞 Denis Leary
      赵乾景 Qianjing Zhao
      布莱恩·黑利 Brian Haley
      马克·达赫蒂 Mark Doherty

◎简  介
    能力越大,责任越大。蜘蛛侠彼得·帕克(安德鲁·加菲尔德 Andrew Garfield 饰)在全力和犯罪、灾难做斗争的同时,终于迎来了毕业的时刻。可是曾经的一段心结,让他和女友格温·斯坦西(艾玛·斯通 Emma Stone 饰)的关系降至冰点。格温应聘于为全城提供电力的 奥斯本集团公司,同一期间发生的两件事,不由得左右这家公司和彼得等人的命运。奥斯本的掌门人病故,他的儿子哈利(戴恩·德哈恩 Dane DeHaan 饰)以20岁的年龄接受这家市值2000亿美元的巨无霸。另一方面,极度崇拜蜘蛛侠的电力工程师麦克斯·威尔·迪伦(杰米·福克斯 Jamie Foxx 饰)在维修机组时意外身亡,当他再度醒来时发现自己变成了全身充满电能的超人类。   感到受了欺骗的麦克斯与蜘蛛侠在时代广场展开对决,而彼得和哈利的友情也将遭到命运的戏弄……

点击图片可查看大图

软字幕无法在截图上展现,HDR版本/杜比视界版本截图会出现颜色异常,请使用支持的设备播放!

##### MediaInfo ######
General
Unique ID : 259546977022803376381630801975035544647 (0xC342EDF3DD891896FC26192B2B6FC447)
Complete name : The.Amazing.SpiderMan.2.2014.UHD.BluRay.2160p.x265.10bit.HDR10.Atmos.TrueHD.7.1-NukeHD.mkv
Duration : 2 h 21 min
Overall bit rate mode : Variable
Overall bit rate : 13.6 Mb/s

Video
ID : 1
Format : HEVC
Format/Info : High Efficiency Video Coding
Format profile : Main [email protected]@High
HDR format : SMPTE ST 2086, HDR10 compatible
Codec ID : V_MPEGH/ISO/HEVC
Duration : 2 h 21 min
Bit rate : 5 400 kb/s
Width : 3 840 pixels
Height : 2 160 pixels
Display aspect ratio : 16:9
Frame rate mode : Constant
Frame rate : 23.976 (24000/1001) FPS
Standard : Component
Color space : YUV
Chroma subsampling : 4:2:0
Bit depth : 10 bits
Bits/(Pixel*Frame) : 0.027
Stream size : 5.34 GiB (40%)
Default : No
Forced : No
Color range : Limited
Color primaries : BT.2020
Transfer characteristics : PQ
Matrix coefficients : BT.2020 non-constant
Mastering display color primaries : Display P3
Mastering display luminance : min: 0.0050 cd/m2, max: 4000 cd/m2
Maximum Content Light Level : 1977 cd/m2
Maximum Frame-Average Light Level : 1112 cd/m2

Audio #1
ID : 2
ID in the original source medium : 4352 (0x1100)
Format : MLP FBA 16-ch
Format/Info : Meridian Lossless Packing FBA with 16-channel presentation
Commercial name : Dolby TrueHD with Dolby Atmos
Codec ID : A_TRUEHD
Duration : 2 h 21 min
Bit rate mode : Variable
Bit rate : 4 396 kb/s
Maximum bit rate : 7 680 kb/s
Channel(s) : 8 channels
Channel layout : L R C LFE Ls Rs Lb Rb
Sampling rate : 48.0 kHz
Frame rate : 1 200.000 FPS (40 SPF)
Bit depth : 24 bits
Compression mode : Lossless
Stream size : 4.35 GiB (32%)
Title : 环绕声 7.1
Language : English
Default : Yes
Forced : No
Original source medium : Blu-ray
Number of dynamic objects : 11
Bed channel count : 1 channel
Bed channel configuration : LFE

Audio #2
ID : 3
ID in the original source medium : 4352 (0x1100)
Format : AC-3
Format/Info : Audio Coding 3
Commercial name : Dolby Digital
Codec ID : A_AC3
Duration : 2 h 21 min
Bit rate mode : Constant
Bit rate : 640 kb/s
Channel(s) : 6 channels
Channel layout : L R C LFE Ls Rs
Sampling rate : 48.0 kHz
Frame rate : 31.250 FPS (1536 SPF)
Compression mode : Lossy
Stream size : 648 MiB (5%)
Title : 环绕声 5.1
Language : English
Service kind : Complete Main
Default : No
Forced : No
Original source medium : Blu-ray

Audio #3
ID : 4
ID in the original source medium : 4353 (0x1101)
Format : AC-3
Format/Info : Audio Coding 3
Commercial name : Dolby Digital
Codec ID : A_AC3
Duration : 2 h 21 min
Bit rate mode : Constant
Bit rate : 640 kb/s
Channel(s) : 6 channels
Channel layout : L R C LFE Ls Rs
Sampling rate : 48.0 kHz
Frame rate : 31.250 FPS (1536 SPF)
Compression mode : Lossy
Stream size : 648 MiB (5%)
Title : 环绕声 5.1
Language : French
Service kind : Complete Main
Default : No
Forced : No
Original source medium : Blu-ray

Audio #4
ID : 5
ID in the original source medium : 4354 (0x1102)
Format : AC-3
Format/Info : Audio Coding 3
Commercial name : Dolby Digital
Codec ID : A_AC3
Duration : 2 h 21 min
Bit rate mode : Constant
Bit rate : 640 kb/s
Channel(s) : 6 channels
Channel layout : L R C LFE Ls Rs
Sampling rate : 48.0 kHz
Frame rate : 31.250 FPS (1536 SPF)
Compression mode : Lossy
Stream size : 648 MiB (5%)
Title : 环绕声 5.1
Language : German
Service kind : Complete Main
Default : No
Forced : No
Original source medium : Blu-ray

Audio #5
ID : 6
ID in the original source medium : 4355 (0x1103)
Format : AC-3
Format/Info : Audio Coding 3
Commercial name : Dolby Digital
Codec ID : A_AC3
Duration : 2 h 21 min
Bit rate mode : Constant
Bit rate : 640 kb/s
Channel(s) : 6 channels
Channel layout : L R C LFE Ls Rs
Sampling rate : 48.0 kHz
Frame rate : 31.250 FPS (1536 SPF)
Compression mode : Lossy
Stream size : 648 MiB (5%)
Title : 环绕声 5.1
Language : Portuguese
Service kind : Complete Main
Default : No
Forced : No
Original source medium : Blu-ray

Audio #6
ID : 7
ID in the original source medium : 4356 (0x1104)
Format : AC-3
Format/Info : Audio Coding 3
Commercial name : Dolby Digital
Codec ID : A_AC3
Duration : 2 h 21 min
Bit rate mode : Constant
Bit rate : 640 kb/s
Channel(s) : 6 channels
Channel layout : L R C LFE Ls Rs
Sampling rate : 48.0 kHz
Frame rate : 31.250 FPS (1536 SPF)
Compression mode : Lossy
Stream size : 648 MiB (5%)
Title : 环绕声 5.1
Language : Spanish
Service kind : Complete Main
Default : No
Forced : No
Original source medium : Blu-ray

Audio #7
ID : 8
ID in the original source medium : 4357 (0x1105)
Format : AC-3
Format/Info : Audio Coding 3
Commercial name : Dolby Digital
Format settings : Dolby Surround
Codec ID : A_AC3
Duration : 2 h 21 min
Bit rate mode : Constant
Bit rate : 192 kb/s
Channel(s) : 2 channels
Channel layout : L R
Sampling rate : 48.0 kHz
Frame rate : 31.250 FPS (1536 SPF)
Compression mode : Lossy
Stream size : 194 MiB (1%)
Title : 立体声
Language : English
Service kind : Complete Main
Default : No
Forced : No
Original source medium : Blu-ray

Text #1
ID : 9
ID in the original source medium : 4768 (0x12A0)
Format : PGS
Muxing mode : zlib
Codec ID : S_HDMV/PGS
Codec ID/Info : Picture based subtitle format used on BDs/HD-DVDs
Duration : 2 h 10 min
Bit rate : 32.1 kb/s
Frame rate : 0.431 FPS
Count of elements : 3375
Stream size : 29.9 MiB (0%)
Language : English
Default : No
Forced : No
Original source medium : Blu-ray

Text #2
ID : 10
ID in the original source medium : 4769 (0x12A1)
Format : PGS
Muxing mode : zlib
Codec ID : S_HDMV/PGS
Codec ID/Info : Picture based subtitle format used on BDs/HD-DVDs
Duration : 2 h 10 min
Bit rate : 32.1 kb/s
Frame rate : 0.433 FPS
Count of elements : 3387
Stream size : 29.9 MiB (0%)
Language : English
Default : No
Forced : No
Original source medium : Blu-ray

Text #3
ID : 11
ID in the original source medium : 4770 (0x12A2)
Format : PGS
Muxing mode : zlib
Codec ID : S_HDMV/PGS
Codec ID/Info : Picture based subtitle format used on BDs/HD-DVDs
Duration : 2 h 20 min
Bit rate : 16.2 kb/s
Frame rate : 0.417 FPS
Count of elements : 3519
Stream size : 16.3 MiB (0%)
Language : Arabic
Default : No
Forced : No
Original source medium : Blu-ray

Text #4
ID : 12
ID in the original source medium : 4771 (0x12A3)
Format : PGS
Muxing mode : zlib
Codec ID : S_HDMV/PGS
Codec ID/Info : Picture based subtitle format used on BDs/HD-DVDs
Duration : 2 h 20 min
Bit rate : 24.5 kb/s
Frame rate : 0.385 FPS
Count of elements : 3243
Stream size : 24.7 MiB (0%)
Language : Dutch
Default : No
Forced : No
Original source medium : Blu-ray

Text #5
ID : 13
ID in the original source medium : 4772 (0x12A4)
Format : PGS
Muxing mode : zlib
Codec ID : S_HDMV/PGS
Codec ID/Info : Picture based subtitle format used on BDs/HD-DVDs
Duration : 2 h 20 min
Bit rate : 24.5 kb/s
Frame rate : 0.372 FPS
Count of elements : 3135
Stream size : 24.7 MiB (0%)
Language : French
Default : No
Forced : No
Original source medium : Blu-ray

Text #6
ID : 14
ID in the original source medium : 4772 (0x12A4)
Format : PGS
Muxing mode : zlib
Codec ID : S_HDMV/PGS
Codec ID/Info : Picture based subtitle format used on BDs/HD-DVDs
Duration : 32 min 28 s
Bit rate : 110 b/s
Frame rate : 0.003 FPS
Count of elements : 6
Stream size : 26.3 KiB (0%)
Language : French
Default : No
Forced : No
Original source medium : Blu-ray

Text #7
ID : 15
ID in the original source medium : 4773 (0x12A5)
Format : PGS
Muxing mode : zlib
Codec ID : S_HDMV/PGS
Codec ID/Info : Picture based subtitle format used on BDs/HD-DVDs
Duration : 2 h 11 min
Bit rate : 32.2 kb/s
Frame rate : 0.441 FPS
Count of elements : 3475
Stream size : 30.2 MiB (0%)
Language : German
Default : No
Forced : No
Original source medium : Blu-ray

Text #8
ID : 16
ID in the original source medium : 4773 (0x12A5)
Format : PGS
Muxing mode : zlib
Codec ID : S_HDMV/PGS
Codec ID/Info : Picture based subtitle format used on BDs/HD-DVDs
Duration : 42 min 52 s
Bit rate : 223 b/s
Frame rate : 0.003 FPS
Count of elements : 8
Stream size : 70.1 KiB (0%)
Language : German
Default : No
Forced : No
Original source medium : Blu-ray

Text #9
ID : 17
ID in the original source medium : 4774 (0x12A6)
Format : PGS
Muxing mode : zlib
Codec ID : S_HDMV/PGS
Codec ID/Info : Picture based subtitle format used on BDs/HD-DVDs
Duration : 2 h 20 min
Bit rate : 19.7 kb/s
Frame rate : 0.413 FPS
Count of elements : 3485
Stream size : 19.8 MiB (0%)
Language : Korean
Default : No
Forced : No
Original source medium : Blu-ray

Text #10
ID : 18
ID in the original source medium : 4775 (0x12A7)
Format : PGS
Muxing mode : zlib
Codec ID : S_HDMV/PGS
Codec ID/Info : Picture based subtitle format used on BDs/HD-DVDs
Duration : 2 h 20 min
Bit rate : 27.1 kb/s
Frame rate : 0.396 FPS
Count of elements : 3339
Stream size : 27.3 MiB (0%)
Language : Portuguese
Default : No
Forced : No
Original source medium : Blu-ray

Text #11
ID : 19
ID in the original source medium : 4775 (0x12A7)
Format : PGS
Muxing mode : zlib
Codec ID : S_HDMV/PGS
Codec ID/Info : Picture based subtitle format used on BDs/HD-DVDs
Duration : 1 h 43 min
Bit rate : 188 b/s
Frame rate : 0.003 FPS
Count of elements : 18
Stream size : 143 KiB (0%)
Language : Portuguese
Default : No
Forced : No
Original source medium : Blu-ray

Text #12
ID : 20
ID in the original source medium : 4776 (0x12A8)
Format : PGS
Muxing mode : zlib
Codec ID : S_HDMV/PGS
Codec ID/Info : Picture based subtitle format used on BDs/HD-DVDs
Duration : 2 h 20 min
Bit rate : 27.0 kb/s
Frame rate : 0.405 FPS
Count of elements : 3416
Stream size : 27.1 MiB (0%)
Language : Spanish
Default : No
Forced : No
Original source medium : Blu-ray

Text #13
ID : 21
ID in the original source medium : 4776 (0x12A8)
Format : PGS
Muxing mode : zlib
Codec ID : S_HDMV/PGS
Codec ID/Info : Picture based subtitle format used on BDs/HD-DVDs
Duration : 1 h 43 min
Bit rate : 163 b/s
Frame rate : 0.003 FPS
Count of elements : 16
Stream size : 124 KiB (0%)
Language : Spanish
Default : No
Forced : No
Original source medium : Blu-ray

Text #14
ID : 22
ID in the original source medium : 4777 (0x12A9)
Format : PGS
Muxing mode : zlib
Codec ID : S_HDMV/PGS
Codec ID/Info : Picture based subtitle format used on BDs/HD-DVDs
Duration : 2 h 20 min
Bit rate : 29.6 kb/s
Frame rate : 0.413 FPS
Count of elements : 3479
Stream size : 29.8 MiB (0%)
Language : Turkish
Default : No
Forced : No
Original source medium : Blu-ray

Text #15
ID : 23
ID in the original source medium : 4778 (0x12AA)
Format : PGS
Muxing mode : zlib
Codec ID : S_HDMV/PGS
Codec ID/Info : Picture based subtitle format used on BDs/HD-DVDs
Duration : 2 h 20 min
Bit rate : 49.3 kb/s
Frame rate : 0.661 FPS
Count of elements : 5576
Stream size : 49.5 MiB (0%)
Language : Dutch
Default : No
Forced : No
Original source medium : Blu-ray

Text #16
ID : 24
ID in the original source medium : 4779 (0x12AB)
Format : PGS
Muxing mode : zlib
Codec ID : S_HDMV/PGS
Codec ID/Info : Picture based subtitle format used on BDs/HD-DVDs
Duration : 2 h 20 min
Bit rate : 47.5 kb/s
Frame rate : 0.648 FPS
Count of elements : 5460
Stream size : 47.8 MiB (0%)
Language : French
Default : No
Forced : No
Original source medium : Blu-ray

Text #17
ID : 25
ID in the original source medium : 4780 (0x12AC)
Format : PGS
Muxing mode : zlib
Codec ID : S_HDMV/PGS
Codec ID/Info : Picture based subtitle format used on BDs/HD-DVDs
Duration : 2 h 20 min
Bit rate : 58.0 kb/s
Frame rate : 0.662 FPS
Count of elements : 5584
Stream size : 58.3 MiB (0%)
Language : German
Default : No
Forced : No
Original source medium : Blu-ray

Text #18
ID : 26
ID in the original source medium : 4781 (0x12AD)
Format : PGS
Muxing mode : zlib
Codec ID : S_HDMV/PGS
Codec ID/Info : Picture based subtitle format used on BDs/HD-DVDs
Duration : 2 h 20 min
Bit rate : 45.0 kb/s
Frame rate : 0.664 FPS
Count of elements : 5596
Stream size : 45.3 MiB (0%)
Language : Korean
Default : No
Forced : No
Original source medium : Blu-ray

Text #19
ID : 27
ID in the original source medium : 4782 (0x12AE)
Format : PGS
Muxing mode : zlib
Codec ID : S_HDMV/PGS
Codec ID/Info : Picture based subtitle format used on BDs/HD-DVDs
Duration : 2 h 20 min
Bit rate : 56.6 kb/s
Frame rate : 0.661 FPS
Count of elements : 5576
Stream size : 56.8 MiB (0%)
Language : Portuguese
Default : No
Forced : No
Original source medium : Blu-ray

Text #20
ID : 28
ID in the original source medium : 4783 (0x12AF)
Format : PGS
Muxing mode : zlib
Codec ID : S_HDMV/PGS
Codec ID/Info : Picture based subtitle format used on BDs/HD-DVDs
Duration : 2 h 20 min
Bit rate : 56.2 kb/s
Frame rate : 0.665 FPS
Count of elements : 5606
Stream size : 56.5 MiB (0%)
Language : Spanish
Default : No
Forced : No
Original source medium : Blu-ray

Text #21
ID : 29
ID in the original source medium : 4784 (0x12B0)
Format : PGS
Muxing mode : zlib
Codec ID : S_HDMV/PGS
Codec ID/Info : Picture based subtitle format used on BDs/HD-DVDs
Duration : 2 h 13 min
Bit rate : 22.7 kb/s
Frame rate : 0.438 FPS
Count of elements : 3515
Stream size : 21.7 MiB (0%)
Language : Chinese
Default : No
Forced : No
Original source medium : Blu-ray

Text #22
ID : 30
ID in the original source medium : 4785 (0x12B1)
Format : PGS
Muxing mode : zlib
Codec ID : S_HDMV/PGS
Codec ID/Info : Picture based subtitle format used on BDs/HD-DVDs
Duration : 2 h 20 min
Bit rate : 28.8 kb/s
Frame rate : 0.416 FPS
Count of elements : 3503
Stream size : 28.9 MiB (0%)
Language : Chinese
Default : No
Forced : No
Original source medium : Blu-ray

Text #23
ID : 31
ID in the original source medium : 4785 (0x12B1)
Format : PGS
Muxing mode : zlib
Codec ID : S_HDMV/PGS
Codec ID/Info : Picture based subtitle format used on BDs/HD-DVDs
Duration : 2 h 6 min
Bit rate : 999 b/s
Frame rate : 0.017 FPS
Count of elements : 126
Stream size : 930 KiB (0%)
Language : Chinese
Default : No
Forced : No
Original source medium : Blu-ray

Text #24
ID : 32
ID in the original source medium : 4786 (0x12B2)
Format : PGS
Muxing mode : zlib
Codec ID : S_HDMV/PGS
Codec ID/Info : Picture based subtitle format used on BDs/HD-DVDs
Duration : 2 h 13 min
Bit rate : 24.3 kb/s
Frame rate : 0.434 FPS
Count of elements : 3481
Stream size : 23.2 MiB (0%)
Language : Chinese
Default : No
Forced : No
Original source medium : Blu-ray

Text #25
ID : 33
ID in the original source medium : 4787 (0x12B3)
Format : PGS
Muxing mode : zlib
Codec ID : S_HDMV/PGS
Codec ID/Info : Picture based subtitle format used on BDs/HD-DVDs
Duration : 2 h 20 min
Bit rate : 27.8 kb/s
Frame rate : 0.414 FPS
Count of elements : 3491
Stream size : 28.0 MiB (0%)
Language : Thai
Default : No
Forced : No
Original source medium : Blu-ray

Menu
00:00:00.000 : en:Chapter 01
00:07:05.007 : en:Chapter 02
00:14:28.200 : en:Chapter 03
00:20:13.837 : en:Chapter 04
00:29:27.098 : en:Chapter 05
00:39:02.590 : en:Chapter 06
00:50:56.553 : en:Chapter 07
00:59:52.755 : en:Chapter 08
01:08:53.129 : en:Chapter 09
01:16:20.117 : en:Chapter 10
01:25:27.705 : en:Chapter 11
01:35:23.259 : en:Chapter 12
01:41:29.958 : en:Chapter 13
01:49:18.343 : en:Chapter 14
01:57:00.346 : en:Chapter 15
02:04:44.351 : en:Chapter 16


部分资源为软字幕,移动端推荐播放器:MxPlayer,nPlayer,infuse ,其他播放器请自行尝试。

部分资源为软字幕,电脑端推荐播放器:PotPlayer,完美解码,KMPLAYER,其他播放器请自行尝试。



1 个附件 售价 大小 下载 时间

The.Amazing.SpiderMan.2.2014.UHD.BluRay.2160p.x265.10bit.HDR10.Atmos.TrueHD..[1LOU.ME].torrent 0 金币 36.49K 1981 次 2月前

#1楼
发帖时间:2023-12-06 21:49:27   |   回复数:1
feung18
武林盟主
感謝樓主辛苦 !
2月前 #2楼
游客组