Asuka601
隐世仙人♂

[更 早] [香港] [剧情] [BD-1080P] 空山灵雨[国语音轨/简繁英字幕].Raining.in.the.Mountain.1979.1080p.BluRay.x264.FLAC.1.0-SONYHD

-->

完整标题:空山灵雨[国语音轨/简繁英字幕].Raining.in.the.Mountain.1979.1080p.BluRay.x264.FLAC.1.0-SONYHD 10.26GB



◎标  题 空山灵雨
◎译  名 Raining in the Mountain
◎片  名 空山靈雨
◎年  代 1979
◎产  地 中国香港
◎类  别 剧情 / 动作 / 武侠 / 古装
◎语  言 汉语普通话
◎上映日期 1979-07-11(中国香港)
◎IMDb评分 7.3/10 (1318人评价)
◎IMDb链接 https://www.imdb.com/title/tt0192213/
◎豆瓣评分 8.4/10 (17012人评价)
◎豆瓣链接 https://movie.douban.com/subject/1301136/
◎片  长 120分钟
◎导  演 胡金铨 King Hu
◎编  剧 胡金铨 King Hu
◎演  员 田丰 Feng Tien
      孙越 Yueh Sun
      徐枫 Feng Hsu
      秦沛 Paul Chun
      石隽 Chun Shih
      吴明才 Ming-tsai Wu
      吴家骧 Chia-hsiang Wu
      佟林 Lin Tung
      萧德虎 Siu Tak-Foo
      王光裕 Kuang Yu Wang
      鲁纯 Chan Lu
      李文泰 Wen Tai Li
      陈慧楼 Hui Lou Chen
      金昌根 Chang-Ken Chin
      杜伟和 Wei Ho Tu

◎简  介
    故事发生在名为“三宝寺”的古刹之中,住持即将圆寂的消息惹得江湖之中一片风雨,原因在于寺庙之中藏有的珍贵手写经书《大乘起信论》,谁若能接替住持的衣钵,便能获得这无价的珍宝。住持有三个徒弟,传衣钵是大事,于是,住持请来了王将军(田丰 饰)、施主文安(孙越 饰)和悟外法师 ( 吴家骧 饰),除了悟外法师之外的两人均觊觎经书的价值连城,文安甚至带来了女飞贼白狐(徐枫 饰)以备不时之需。   住持有三个徒弟,大师兄(石隽 饰)和二师弟早已经被王将军和文安收买,只有三师弟慧思(秦沛 饰)是一心一意的为寺庙着想。就在这个节骨眼上,一位名叫邱明(佟林 饰)的男子来到寺里剃度为僧,邱明身为流犯却实为含冤受屈,而令他受冤且害他家破人亡的罪魁祸首不在别处,正在这寺庙之中。

##### MediaInfo ######
General
Unique ID : 153092170935311246530942716761515454981 (0x732C7AC8BD8F939F4A3088D347B77205)
Complete name : Raining.in.the.Mountain.1979.1080p.BluRay.x264.FLAC.1.0-SONYHD.mkv
Duration : 2 h 1 min
Overall bit rate mode : Variable
Overall bit rate : 12.1 Mb/s

Video
ID : 1
Format : AVC
Format/Info : Advanced Video Codec
Format profile : [email protected]
Format settings : CABAC / 4 Ref Frames
Format settings, CABAC : Yes
Format settings, Reference frames : 4 frames
Codec ID : V_MPEG4/ISO/AVC
Duration : 2 h 1 min
Bit rate : 11.8 Mb/s
Width : 1 920 pixels
Height : 802 pixels
Display aspect ratio : 2.40:1
Frame rate mode : Constant
Frame rate : 23.976 (24000/1001) FPS
Color space : YUV
Chroma subsampling : 4:2:0
Bit depth : 8 bits
Scan type : Progressive
Bits/(Pixel*Frame) : 0.320
Stream size : 10.0 GiB (98%)
Writing library : x264 core 164 r3107+55M 1028c06 t_mod_New [(8 & 10)-bit@all X86_64]
Encoding settings : cabac=1 / ref=4 / deblock=1:-3:-3 / analyse=0x3:0x133 / me=umh / subme=11 / psy=1 / fade_compensate=0.00 / psy_rd=1.00:0.00 / mixed_ref=1 / me_range=48 / chroma_me=1 / trellis=2 / 8x8dct=1 / cqm=0 / deadzone=21,11 / fast_pskip=0 / chroma_qp_offset=-3 / threads=25 / lookahead_threads=6 / sliced_threads=0 / nr=0 / decimate=0 / interlaced=0 / bluray_compat=0 / constrained_intra=0 / fgo=0 / bframes=11 / b_pyramid=2 / b_adapt=2 / b_bias=0 / direct=3 / weightb=1 / open_gop=0 / weightp=2 / keyint=240 / keyint_min=1 / scenecut=40 / intra_refresh=0 / rc_lookahead=72 / rc=crf / mbtree=0 / crf=19.0000 / qcomp=0.60 / qpmin=0:0:0 / qpmax=69:69:69 / qpstep=4 / vbv_maxrate=62500 / vbv_bufsize=78125 / crf_max=0.0 / nal_hrd=none / filler=0 / ip_ratio=1.40 / pb_ratio=1.30 / aq=3:0.75 / aq-sensitivity=10.00 / aq-factor=1.00:1.00:1.00 / aq2=0 / aq3=0
Language : English
Default : Yes
Forced : No

Audio
ID : 2
Format : FLAC
Format/Info : Free Lossless Audio Codec
Codec ID : A_FLAC
Duration : 2 h 1 min
Bit rate mode : Variable
Bit rate : 237 kb/s
Channel(s) : 1 channel
Channel layout : C
Sampling rate : 48.0 kHz
Frame rate : 11.719 FPS (4096 SPF)
Bit depth : 16 bits
Compression mode : Lossless
Stream size : 206 MiB (2%)
Title : Mandarin
Writing library : libFLAC 1.2.1 (UTC 2007-09-17)
Language : Chinese
Default : Yes
Forced : No

Text #1
ID : 3
ID in the original source medium : 4609 (0x1201)
Format : PGS
Muxing mode : zlib
Codec ID : S_HDMV/PGS
Codec ID/Info : Picture based subtitle format used on BDs/HD-DVDs
Duration : 1 h 55 min
Bit rate : 13.2 kb/s
Frame rate : 0.242 FPS
Count of elements : 1681
Stream size : 10.9 MiB (0%)
Title : chs
Language : Chinese
Default : Yes
Forced : No
Original source medium : Blu-ray

Text #2
ID : 4
ID in the original source medium : 4610 (0x1202)
Format : PGS
Muxing mode : zlib
Codec ID : S_HDMV/PGS
Codec ID/Info : Picture based subtitle format used on BDs/HD-DVDs
Duration : 1 h 55 min
Bit rate : 13.3 kb/s
Frame rate : 0.242 FPS
Count of elements : 1681
Stream size : 11.0 MiB (0%)
Title : cht
Language : Chinese
Default : No
Forced : No
Original source medium : Blu-ray

Text #3
ID : 5
ID in the original source medium : 4608 (0x1200)
Format : PGS
Muxing mode : zlib
Codec ID : S_HDMV/PGS
Codec ID/Info : Picture based subtitle format used on BDs/HD-DVDs
Duration : 2 h 0 min
Bit rate : 17.0 kb/s
Frame rate : 0.259 FPS
Count of elements : 1868
Stream size : 14.6 MiB (0%)
Title : eng
Language : English
Default : No
Forced : No
Original source medium : Blu-ray

Menu
00:00:00.000 : en:Chapter 01
00:10:27.793 : en:Chapter 02
00:18:30.567 : en:Chapter 03
00:27:07.542 : en:Chapter 04
00:32:42.585 : en:Chapter 05
00:43:28.689 : en:Chapter 06
00:51:47.020 : en:Chapter 07
01:01:00.615 : en:Chapter 08
01:11:28.200 : en:Chapter 09
01:18:20.946 : en:Chapter 10
01:27:02.467 : en:Chapter 11
01:35:08.411 : en:Chapter 12
01:44:17.292 : en:Chapter 13
01:52:38.668 : en:Chapter 14


部分资源为软字幕,移动端推荐播放器:MxPlayer,nPlayer,infuse ,其他播放器请自行尝试。

部分资源为软字幕,电脑端推荐播放器:PotPlayer,完美解码,KMPLAYER,其他播放器请自行尝试。



1 个附件 售价 大小 下载 时间

Raining.in.the.Mountain.1979.1080p.BluRay.x264.FLAC.1.0-SONYHD[1LOU.ME].torrent 0 金币 28.56K 966 次 2月前

#1楼
发帖时间:2023-12-06 21:47:11   |   回复数:0
游客组