Asuka601
隐世仙人♂

[更 早] [其它] [剧情] [WEB-4K] 真爱至上[国英多音轨/简繁英字幕].Love.Actually.2003.BluRay.2160p.TrueHD.7.1.HDR.x265.10bit-Drea

-->

完整标题:真爱至上[国英多音轨/简繁英字幕].Love.Actually.2003.BluRay.2160p.TrueHD.7.1.HDR.x265.10bit-DreamHD 25.82GB



◎标  题 真爱至上
◎译  名 真的恋爱了(港) / 爱是您,爱是我(台) / 真情角落 / 真爱 / Love Actually Is All Around
◎片  名 Love Actually
◎年  代 2003
◎产  地 英国 / 美国 / 法国
◎类  别 剧情 / 喜剧 / 爱情
◎语  言 英语 / 葡萄牙语 / 法语
◎上映日期 2003-09-07(多伦多电影节) / 2003-11-06(美国) / 2003-11-21(英国)
◎IMDb评分 7.6/10 (505846人评价)
◎IMDb链接 https://www.imdb.com/title/tt0314331/
◎豆瓣评分 8.6/10 (732697人评价)
◎豆瓣链接 https://movie.douban.com/subject/1292401/
◎片  长 135分钟
◎导  演 理查德·柯蒂斯 Richard Curtis
◎编  剧 理查德·柯蒂斯 Richard Curtis
◎演  员 休·格兰特 Hugh Grant
      科林·费尔斯 Colin Firth
      艾玛·汤普森 Emma Thompson
      凯拉·奈特莉 Keira Knightley
      连姆·尼森 Liam Neeson
      托马斯·布罗迪-桑斯特 Thomas Brodie-Sangster
      比尔·奈伊 Bill Nighy
      马丁·弗瑞曼 Martin Freeman
      劳拉·琳妮 Laura Linney
      艾伦·瑞克曼 Alan Rickman
      克里斯·马歇尔 Kris Marshall
      罗德里戈·桑托罗 Rodrigo Santoro
      罗温·艾金森 Rowan Atkinson
      比利·鲍伯·松顿 Billy Bob Thornton
      玛汀·麦古基安 Martine McCutcheon
      安德鲁·林肯 Andrew Lincoln
      露西娅·莫尼斯 Lúcia Moniz
      海克·玛卡琪 Heike Makatsch
      詹纽瑞·琼斯 January Jones
      伊丽莎·库斯伯特 Elisha Cuthbert
      阿卜杜勒·萨利斯 Abdul Salis
      丹妮丝·理查兹 Denise Richards
      西耶娜·盖尔利 Sienna Guillory
      基尔·查尔斯 Keir Charles
      阿图罗·韦尼加斯 Arturo Venegas
      伊丽莎白·马尔戈尼 Elisabeth Margoni
      马库斯·布里斯托克 Marcus Brigstocke
      理查德·柯蒂斯 Richard Curtis
      奥利维亚·奥尔森 Olivia Olson
      克劳迪亚·席弗 Claudia Schiffer
      丹·弗雷登堡 Dan Fredenburgh
      格莱格·费什尔 Gregor Fisher
      亚当·戈德利 Adam Godley
      切瓦特·埃加福 Chiwetel Ejiofor
      尼娜·索珊娅 Nina Sosanya
      乔安娜·佩吉 Joanna Page
      朱莉娅·戴维斯 Julia Davis
      Tony Lucken Tony Lucken
      Richard Hawley Richard Hawley

◎简  介
    这是一出10个爱情故事串成的喜剧杂烩:   失去母亲的小男孩终日郁郁寡欢,继父不知该如何安慰。当他得知继子喜欢上学校里最美的女孩,便热烈地鼓励儿子去追。小男孩为了赢得小女孩的关注,废寝忘食地练习架子鼓,只为了在圣诞节的晚会上能与她同台演出。勇敢的他,甚至为了最后的一记道别潇 洒地突破机场的安检区。   两个孩子的母亲面对了婚姻危机。丈夫感情出轨,把项链送给了别的女人,给她的,则仅是一张她热爱的女歌手的CD。她找了借口仓皇躲入卧室,在歌声中隐忍啜泣。转个身,又夸张地大笑着,迎向娇女爱子欢喜的面容。 丈夫最终幡然醒悟。   ……   如此的小故事共有十出,温暖你我的心。

##### MediaInfo ######
General
Unique ID : 247953145182552904329590754742198775855 (0xBA8A09E8FA49EA1B904D65F37AA6B02F)
Complete name : Love.Actually.2003.BluRay.2160p.TrueHD.7.1.HDR.x265.10bit-DreamHD.mkv
Duration : 2 h 14 min
Overall bit rate mode : Variable
Overall bit rate : 27.4 Mb/s

Video
ID : 1
Format : HEVC
Format/Info : High Efficiency Video Coding
Format profile : Main [email protected]@Main
HDR format : SMPTE ST 2086, HDR10 compatible
Codec ID : V_MPEGH/ISO/HEVC
Duration : 2 h 14 min
Bit rate : 22.5 Mb/s
Width : 3 840 pixels
Height : 1 608 pixels
Display aspect ratio : 2.40:1
Frame rate mode : Constant
Frame rate : 23.976 (24000/1001) FPS
Color space : YUV
Chroma subsampling : 4:2:0
Bit depth : 10 bits
Bits/(Pixel*Frame) : 0.152
Stream size : 21.2 GiB (82%)
Default : Yes
Forced : No
Color range : Limited
Color primaries : BT.2020
Transfer characteristics : PQ
Matrix coefficients : BT.2020 non-constant
Mastering display color primaries : Display P3
Mastering display luminance : min: 0.0050 cd/m2, max: 1000 cd/m2
Maximum Content Light Level : 836
MaxCLL_Original : 836 cd/m2
Maximum Frame-Average Light Level : 160
MaxFALL_Original : 160 cd/m2

Audio #1
ID : 2
Format : MLP FBA 16-ch
Format/Info : Meridian Lossless Packing FBA with 16-channel presentation
Commercial name : Dolby TrueHD with Dolby Atmos
Codec ID : A_TRUEHD
Duration : 2 h 14 min
Bit rate mode : Variable
Bit rate : 3 149 kb/s
Maximum bit rate : 4 620 kb/s
Channel(s) : 8 channels
Channel layout : L R C LFE Ls Rs Lb Rb
Sampling rate : 48.0 kHz
Frame rate : 1 200.000 FPS (40 SPF)
Compression mode : Lossless
Stream size : 2.96 GiB (11%)
Title : Surround
Language : English
Default : Yes
Forced : No
Number of dynamic objects : 11
Bed channel count : 1 channel
Bed channel configuration : LFE

Audio #2
ID : 3
Format : AC-3
Format/Info : Audio Coding 3
Commercial name : Dolby Digital
Codec ID : A_AC3
Duration : 2 h 14 min
Bit rate mode : Constant
Bit rate : 448 kb/s
Channel(s) : 6 channels
Channel layout : L R C LFE Ls Rs
Sampling rate : 48.0 kHz
Frame rate : 31.250 FPS (1536 SPF)
Compression mode : Lossy
Delay relative to video : 3 s 500 ms
Stream size : 432 MiB (2%)
Title : Mandarin(央视)
Language : Chinese
Service kind : Complete Main
Default : No
Forced : No

Audio #3
ID : 4
Format : AC-3
Format/Info : Audio Coding 3
Commercial name : Dolby Digital
Codec ID : A_AC3
Duration : 2 h 14 min
Bit rate mode : Constant
Bit rate : 448 kb/s
Channel(s) : 6 channels
Channel layout : L R C LFE Ls Rs
Sampling rate : 48.0 kHz
Frame rate : 31.250 FPS (1536 SPF)
Compression mode : Lossy
Delay relative to video : 3 s 500 ms
Stream size : 432 MiB (2%)
Title : Mandarin(泰盛六区)
Language : Chinese
Service kind : Complete Main
Default : No
Forced : No

Audio #4
ID : 5
Format : AC-3
Format/Info : Audio Coding 3
Commercial name : Dolby Digital
Codec ID : A_AC3
Duration : 2 h 14 min
Bit rate mode : Constant
Bit rate : 384 kb/s
Channel(s) : 6 channels
Channel layout : L R C LFE Ls Rs
Sampling rate : 48.0 kHz
Frame rate : 31.250 FPS (1536 SPF)
Compression mode : Lossy
Delay relative to video : 3 s 500 ms
Stream size : 370 MiB (1%)
Title : Mandarin(影音同画译制)
Language : Chinese
Service kind : Complete Main
Default : No
Forced : No

Audio #5
ID : 6
Format : AC-3
Format/Info : Audio Coding 3
Commercial name : Dolby Digital
Codec ID : A_AC3
Duration : 2 h 14 min
Bit rate mode : Constant
Bit rate : 192 kb/s
Channel(s) : 2 channels
Channel layout : L R
Sampling rate : 48.0 kHz
Frame rate : 31.250 FPS (1536 SPF)
Compression mode : Lossy
Stream size : 185 MiB (1%)
Title : Commentary
Language : English
Service kind : Complete Main
Default : No
Forced : No

Text #1
ID : 7
Format : PGS
Codec ID : S_HDMV/PGS
Codec ID/Info : Picture based subtitle format used on BDs/HD-DVDs
Duration : 2 h 7 min
Bit rate : 37.2 kb/s
Frame rate : 0.468 FPS
Count of elements : 3584
Stream size : 33.9 MiB (0%)
Language : English
Default : No
Forced : No

Text #2
ID : 8
Format : PGS
Codec ID : S_HDMV/PGS
Codec ID/Info : Picture based subtitle format used on BDs/HD-DVDs
Duration : 2 h 13 min
Bit rate : 28.4 kb/s
Frame rate : 0.357 FPS
Count of elements : 2862
Stream size : 27.1 MiB (0%)
Language : Spanish
Default : No
Forced : No

Text #3
ID : 9
Format : PGS
Codec ID : S_HDMV/PGS
Codec ID/Info : Picture based subtitle format used on BDs/HD-DVDs
Duration : 2 h 9 min
Bit rate : 83.2 kb/s
Frame rate : 0.581 FPS
Count of elements : 4499
Stream size : 76.8 MiB (0%)
Title : Chs&Eng
Language : Chinese
Default : No
Forced : No

Text #4
ID : 10
Format : PGS
Codec ID : S_HDMV/PGS
Codec ID/Info : Picture based subtitle format used on BDs/HD-DVDs
Duration : 2 h 9 min
Bit rate : 84.7 kb/s
Frame rate : 0.581 FPS
Count of elements : 4499
Stream size : 78.2 MiB (0%)
Title : Cht&Eng
Language : Chinese
Default : No
Forced : No

Menu
00:00:00.000 : :Chapter 1
00:09:46.336 : :Chapter 2
00:15:09.367 : :Chapter 3
00:22:43.237 : :Chapter 4
00:29:48.370 : :Chapter 5
00:36:42.450 : :Chapter 6
00:44:21.409 : :Chapter 7
00:51:24.164 : :Chapter 8
00:58:23.375 : :Chapter 9
01:06:27.358 : :Chapter 10
01:09:27.580 : :Chapter 11
01:15:55.134 : :Chapter 12
01:23:32.508 : :Chapter 13
01:28:46.488 : :Chapter 14
01:36:44.674 : :Chapter 15
01:45:01.754 : :Chapter 16
01:51:38.066 : :Chapter 17
01:58:18.925 : :Chapter 18
02:05:34.652 : :Chapter 19
02:06:42.470 : :Chapter 20
02:14:46.662 : :Chapter 21


部分资源为软字幕,移动端推荐播放器:MxPlayer,nPlayer,infuse ,其他播放器请自行尝试。

部分资源为软字幕,电脑端推荐播放器:PotPlayer,完美解码,KMPLAYER,其他播放器请自行尝试。



1 个附件 售价 大小 下载 时间

Love.Actually.2003.BluRay.2160p.TrueHD.7.1.HDR.x265.10bit-DreamHD[1LOU.ME].torrent 0 金币 67.55K 2562 次 2月前

#1楼
发帖时间:2023-12-06 21:46:39   |   回复数:0
游客组