Asuka601
隐世仙人♂

[2022] [大陆] [动作] [BD-1080P] 目中无人[国英多音轨/简繁英字幕].Eye.for.an.Eye.The.Blind.Swordsman.2022.1080p.BluRay.x264.DTS.

-->

完整标题:目中无人[国英多音轨/简繁英字幕].Eye.for.an.Eye.The.Blind.Swordsman.2022.1080p.BluRay.x264.DTS.2Audio-SONYHD 9.84GB



◎标  题 目中无人
◎译  名 盲侠
◎年  代 2022
◎产  地 中国大陆
◎类  别 动作 / 武侠
◎语  言 汉语普通话
◎上映日期 2022-06-03(中国大陆网络)
◎IMDb评分 6.9/10 (103人评价)
◎IMDb链接 https://www.imdb.com/title/tt21318724/
◎豆瓣评分 7.1/10 (65278人评价)
◎豆瓣链接 https://movie.douban.com/subject/35295405/
◎片  长 74分钟
◎导  演 杨秉佳 Bingjia Yang
◎编  剧 杨秉佳 Bingjia Yang
◎演  员 谢苗 Miu Tse
      高维蔓 Weiman Gao
      向皓 Hao Xiang
      刘奔 Ben Liu
      张荻 Di Zhang
      张皓森 Haosen Zhang
      高毅 Yi Gao
      康轩 Xuan Kang
      侯骏桀 Junjie Hou
      尹箭 Jian Yin
      甘书杰 Shujie Gan

◎简  介
    电影讲述身怀绝技的盲眼“捉刀人”成瞎子,遇上惨遭灭门和凌辱的酒家女倪燕,原本不想插手的他逐渐被卷入一场势力庞大的暗黑纷争中,成瞎子开始踏上了寻求公道的复仇之路,他的真实身份也随之揭晓。

##### MediaInfo ######
General
Unique ID : 161839650168355631008202166063194286754 (0x79C12ECEEB5C1E8C1FAE166698D5AAA2)
Complete name : Eye.for.an.Eye.The.Blind.Swordsman.2022.1080p.BluRay.x264.DTS.2Audio-SONYHD.mkv
Duration : 1 h 17 min
Overall bit rate : 18.2 Mb/s

Video
ID : 1
Format : AVC
Format/Info : Advanced Video Codec
Format profile : [email protected]
Format settings : CABAC / 4 Ref Frames
Format settings, CABAC : Yes
Format settings, Reference frames : 4 frames
Codec ID : V_MPEG4/ISO/AVC
Duration : 1 h 17 min
Bit rate : 15.2 Mb/s
Width : 1 920 pixels
Height : 800 pixels
Display aspect ratio : 2.40:1
Frame rate mode : Constant
Frame rate : 24.000 FPS
Color space : YUV
Chroma subsampling : 4:2:0
Bit depth : 8 bits
Scan type : Progressive
Bits/(Pixel*Frame) : 0.412
Stream size : 8.20 GiB (83%)
Writing library : x264 core 164 r3107+55M 1028c06 t_mod_New [(8 & 10)-bit@all X86_64]
Encoding settings : cabac=1 / ref=4 / deblock=1:-3:-3 / analyse=0x3:0x133 / me=umh / subme=11 / psy=1 / fade_compensate=0.00 / psy_rd=1.00:0.00 / mixed_ref=1 / me_range=48 / chroma_me=1 / trellis=2 / 8x8dct=1 / cqm=0 / deadzone=21,11 / fast_pskip=0 / chroma_qp_offset=-3 / threads=25 / lookahead_threads=6 / sliced_threads=0 / nr=0 / decimate=0 / interlaced=0 / bluray_compat=0 / constrained_intra=0 / fgo=0 / bframes=10 / b_pyramid=2 / b_adapt=2 / b_bias=0 / direct=3 / weightb=1 / open_gop=0 / weightp=2 / keyint=240 / keyint_min=1 / scenecut=40 / intra_refresh=0 / rc_lookahead=72 / rc=crf / mbtree=0 / crf=14.0000 / qcomp=0.65 / qpmin=0:0:0 / qpmax=69:69:69 / qpstep=4 / vbv_maxrate=62500 / vbv_bufsize=78125 / crf_max=0.0 / nal_hrd=none / filler=0 / ip_ratio=1.40 / pb_ratio=1.30 / aq=3:0.80 / aq-sensitivity=10.00 / aq-factor=1.00:1.00:1.00 / aq2=0 / aq3=0
Default : Yes
Forced : No

Audio #1
ID : 2
ID in the original source medium : 4352 (0x1100)
Format : DTS
Format/Info : Digital Theater Systems
Codec ID : A_DTS
Duration : 1 h 17 min
Bit rate mode : Constant
Bit rate : 1 509 kb/s
Channel(s) : 6 channels
Channel layout : C L R Ls Rs LFE
Sampling rate : 48.0 kHz
Frame rate : 93.750 FPS (512 SPF)
Bit depth : 16 bits
Compression mode : Lossy
Stream size : 835 MiB (8%)
Title : Mandarin
Language : Chinese
Default : Yes
Forced : No
Original source medium : Blu-ray

Audio #2
ID : 3
ID in the original source medium : 4354 (0x1102)
Format : DTS
Format/Info : Digital Theater Systems
Codec ID : A_DTS
Duration : 1 h 17 min
Bit rate mode : Constant
Bit rate : 1 509 kb/s
Channel(s) : 6 channels
Channel layout : C L R Ls Rs LFE
Sampling rate : 48.0 kHz
Frame rate : 93.750 FPS (512 SPF)
Bit depth : 16 bits
Compression mode : Lossy
Stream size : 835 MiB (8%)
Title : English
Language : English
Default : No
Forced : No
Original source medium : Blu-ray

Text #1
ID : 4
Format : PGS
Muxing mode : zlib
Codec ID : S_HDMV/PGS
Codec ID/Info : Picture based subtitle format used on BDs/HD-DVDs
Duration : 1 h 13 min
Bit rate : 12.3 kb/s
Frame rate : 0.311 FPS
Count of elements : 1369
Stream size : 6.46 MiB (0%)
Title : chs
Language : Chinese
Default : Yes
Forced : No

Text #2
ID : 5
Format : PGS
Muxing mode : zlib
Codec ID : S_HDMV/PGS
Codec ID/Info : Picture based subtitle format used on BDs/HD-DVDs
Duration : 1 h 13 min
Bit rate : 12.5 kb/s
Frame rate : 0.311 FPS
Count of elements : 1369
Stream size : 6.56 MiB (0%)
Title : cht
Language : Chinese
Default : No
Forced : No

Text #3
ID : 6
ID in the original source medium : 4608 (0x1200)
Format : PGS
Muxing mode : zlib
Codec ID : S_HDMV/PGS
Codec ID/Info : Picture based subtitle format used on BDs/HD-DVDs
Duration : 1 h 12 min
Bit rate : 21.0 kb/s
Frame rate : 0.351 FPS
Count of elements : 1520
Stream size : 10.9 MiB (0%)
Title : eng
Language : English
Default : No
Forced : No
Original source medium : Blu-ray

Menu
00:00:00.000 : en:Chapter 01
00:09:08.083 : en:Chapter 02
00:18:52.541 : en:Chapter 03
00:27:26.375 : en:Chapter 04
00:37:42.208 : en:Chapter 05
00:46:32.083 : en:Chapter 06
00:53:52.166 : en:Chapter 07
00:59:51.000 : en:Chapter 08
01:13:10.875 : en:Chapter 09


部分资源为软字幕,移动端推荐播放器:MxPlayer,nPlayer,infuse ,其他播放器请自行尝试。

部分资源为软字幕,电脑端推荐播放器:PotPlayer,完美解码,KMPLAYER,其他播放器请自行尝试。



1 个附件 售价 大小 下载 时间

Eye.for.an.Eye.The.Blind.Swordsman.2022.1080p.BluRay.x264.DTS.2Audio-SONYHD[1LOU.ME].torrent 0 金币 27.54K 1778 次 2月前

#1楼
发帖时间:2023-12-06 21:44:20   |   回复数:1
liyouchai
隐世仙人♂
谢谢楼主分享资源
2月前 #2楼
游客组