Asuka601
隐世仙人♂

[2016] [韩国] [动作] [WEB-1080P] 两个男人[中文字幕].Derailed.2016.1080p.DSNP.WEB-DL.DDP.5.1.H.264-DreamHD 4.49GB

-->

完整标题:两个男人[中文字幕].Derailed.2016.1080p.DSNP.WEB-DL.DDP.5.1.H.264-DreamHD 4.49GB



◎标  题 两个男人
◎译  名 两个世界(港) / Derailed
◎片  名 두 남자
◎年  代 2016
◎产  地 韩国
◎类  别 动作 / 犯罪
◎语  言 韩语
◎上映日期 2016-11-30(韩国)
◎IMDb评分 6.1/10 (713人评价)
◎IMDb链接 https://www.imdb.com/title/tt6173644/
◎豆瓣评分 5.8/10 (1838人评价)
◎豆瓣链接 https://movie.douban.com/subject/26668501/
◎片  长 91分钟
◎导  演 李成泰 Seong-Tae Lee
◎编  剧 李成泰 Seong-Tae Lee
◎演  员 马东锡 Ma Dong-seok
      崔珉豪 Min-ho Choi
      李有镇 Lee You-jin
      多恩 Daeun
      白秀敏 Soo-min Baek
      金王根 Kim Wang-geun
      Lee Si-yoo Lee Si-yoo
      李泰圭 Lee Tae-gyoo
      朴成日 Park Seong-il
      金建 Kim Geon
      金元植 Won-Sik Kim

◎简  介
    离家出走的四个少年通过倒卖偷来的东西“养家糊口”。当他们靠偷东西过活的日子越来越不好过的时候,为了在这个没有大人能保护他们的残酷社会中生存下去,四个年轻人不惜做出更危险的行动、犯更大的罪行。 一天,他们偷了一个男人的车,而这个男人是经营一间非法KTV的老板。 四个年轻人被抓住后,其中的一个女孩被逼迫到KTV工作,直到还清钱才放她走。 更糟的是,四个年轻人中有两个人选择放弃。 那一刻起,拯救女孩成了男主角一个人的战斗......

点击图片可查看大图

软字幕无法在截图上展现,HDR版本/杜比视界版本截图会出现颜色异常,请使用支持的设备播放!

##### MediaInfo ######
General
Unique ID : 250366184457260915955072105870280681299 (0xBC5AC5EE85E166B26FB362B00438E753)
Complete name : Derailed.2016.1080p.DSNP.WEB-DL.DDP.5.1.H.264-DreamHD.mkv
Duration : 1 h 31 min
Overall bit rate mode : Variable
Overall bit rate : 7 020 kb/s

Video
ID : 1
Format : AVC
Format/Info : Advanced Video Codec
Format profile : High@L4
Format settings : CABAC / 4 Ref Frames
Format settings, CABAC : Yes
Format settings, Reference frames : 4 frames
Codec ID : V_MPEG4/ISO/AVC
Duration : 1 h 31 min
Bit rate mode : Variable
Bit rate : 6 762 kb/s
Maximum bit rate : 12.7 Mb/s
Width : 1 920 pixels
Height : 1 080 pixels
Display aspect ratio : 16:9
Frame rate mode : Constant
Frame rate : 23.976 (24000/1001) FPS
Color space : YUV
Chroma subsampling : 4:2:0
Bit depth : 8 bits
Scan type : Progressive
Bits/(Pixel*Frame) : 0.136
Stream size : 4.32 GiB (96%)
Language : Korean
Default : Yes
Forced : No
Color range : Limited
Color primaries : BT.709
Transfer characteristics : BT.709
Matrix coefficients : BT.709

Audio
ID : 2
Format : E-AC-3
Format/Info : Enhanced AC-3
Commercial name : Dolby Digital Plus
Codec ID : A_EAC3
Duration : 1 h 31 min
Bit rate mode : Constant
Bit rate : 256 kb/s
Channel(s) : 6 channels
Channel layout : L R C LFE Ls Rs
Sampling rate : 48.0 kHz
Frame rate : 31.250 FPS (1536 SPF)
Compression mode : Lossy
Stream size : 167 MiB (4%)
Language : Korean
Service kind : Complete Main
Default : Yes
Forced : No

Text
ID : 3
Format : UTF-8
Codec ID : S_TEXT/UTF8
Codec ID/Info : UTF-8 Plain Text
Duration : 1 h 25 min
Bit rate : 42 b/s
Frame rate : 0.265 FPS
Count of elements : 1355
Stream size : 26.6 KiB (0%)
Title : Traditional
Language : Chinese
Default : No
Forced : No


部分资源为软字幕,移动端推荐播放器:MxPlayer,nPlayer,infuse ,其他播放器请自行尝试。

部分资源为软字幕,电脑端推荐播放器:PotPlayer,完美解码,KMPLAYER,其他播放器请自行尝试。



1 个附件 售价 大小 下载 时间

Derailed.2016.1080p.DSNP.WEB-DL.DDP.5.1.H.264-DreamHD[1LOU.ME].torrent 0 金币 14.09K 1295 次 2月前

#1楼
发帖时间:2023-12-06 21:43:47   |   回复数:1
liyouchai
隐世仙人♂
谢谢楼主分享资源
2月前 #2楼
游客组