Asuka601
隐世仙人♂

[2018] [大陆] [爱情] [WEB-1080P] 男狐聊斋2兰若寺[国语配音/中文字幕].Nan.Hu.Liao.Zhai.2.Lan.Ruo.Si.2018.1080p.WEB-DL.HEVC.AAC-Nuk

-->

完整标题:男狐聊斋2兰若寺[国语配音/中文字幕].Nan.Hu.Liao.Zhai.2.Lan.Ruo.Si.2018.1080p.WEB-DL.HEVC.AAC-NukeHD 1.35GB



◎标  题 男狐聊斋2兰若寺
◎译  名 男狐聊斋2
◎年  代 2018
◎产  地 中国大陆
◎类  别 爱情 / 奇幻 / 古装
◎语  言 汉语普通话
◎上映日期 2018-07-03(中国大陆)
◎IMDb链接 https://www.imdb.com/title//
◎豆瓣评分 4.3/10 (760人评价)
◎豆瓣链接 https://movie.douban.com/subject/26981579/
◎片  长 61分钟
◎导  演 李遥波 Yaobo Li
◎编  剧 陈未衾 C.Y.Chen
◎演  员 叶小开 Xiaokai Ye
      何其炜 Qiwei He
      潘子剑 Zijian Pan
      朱丽岚 Lilan Zhu

◎简  介
    影片讲述了书生宁采臣上京赶考,午夜时分与道士燕赤霞夜宿兰若寺。不料一进入其间,却是别有洞天,灯红酒绿不似人间,众多酒客与美人推杯换盏好不快活。殊不知兰若寺中众多美人竟都是妖精所化,其中倩郎与小倩兄妹二人是一对双生狐妖,被姥姥操控在兰若寺中吸取壮年男子的精气,由此来增强自己的功力。   倩郎化作妹妹小倩的模样以黄金美色诱惑宁采臣却无功而返,敬其诚挚,便想将妹妹小倩托付于他,希望宁采臣带着妹妹离开这个是非之地。姥姥得知此事震怒,一面是燕赤霞势在消除姥姥却法力不敌,另一面是倩郎和采臣执意要解救小倩,恰逢姥姥功力最强之时,三人又该何去何从?

##### MediaInfo ######
General
Complete name : [男狐聊斋2兰若寺].Nan.Hu.Liao.Zhai.2.Lan.Ruo.Si.2018.1080p.WEB-DL.HEVC.AAC-NukeHD.mp4
Duration : 1 h 1 min
Overall bit rate mode : Variable
Overall bit rate : 3 123 kb/s

Video
ID : 1
Format : HEVC
Format/Info : High Efficiency Video Coding
Format profile : Main@L5@Main
Codec ID : hvc1
Codec ID/Info : High Efficiency Video Coding
Duration : 1 h 1 min
Bit rate : 2 988 kb/s
Maximum bit rate : 15.6 Mb/s
Width : 1 920 pixels
Height : 832 pixels
Display aspect ratio : 2.35:1
Frame rate mode : Constant
Frame rate : 25.000 FPS
Color space : YUV
Chroma subsampling : 4:2:0 (Type 0)
Bit depth : 8 bits
Bits/(Pixel*Frame) : 0.075
Stream size : 1.29 GiB (96%)
Default : Yes
Alternate group : 1
mdhd_Duration : 3700360
Codec configuration box : hvcC

Audio
ID : 2
Format : AAC LC
Format/Info : Advanced Audio Codec Low Complexity
Codec ID : mp4a-40-2
Duration : 1 h 1 min
Bit rate mode : Variable
Bit rate : 128 kb/s
Maximum bit rate : 184 kb/s
Channel(s) : 2 channels
Channel layout : L R
Sampling rate : 48.0 kHz
Frame rate : 46.875 FPS (1024 SPF)
Compression mode : Lossy
Stream size : 56.3 MiB (4%)
Default : Yes
Alternate group : 2


部分资源为软字幕,移动端推荐播放器:MxPlayer,nPlayer,infuse ,其他播放器请自行尝试。

部分资源为软字幕,电脑端推荐播放器:PotPlayer,完美解码,KMPLAYER,其他播放器请自行尝试。



1 个附件 售价 大小 下载 时间

Nan.Hu.Liao.Zhai.2.Lan.Ruo.Si.2018.1080p.WEB-DL.HEVC.AAC-NukeHD[1LOU.ME].torrent 0 金币 6.31K 770 次 2月前

#1楼
发帖时间:2023-12-06 21:42:12   |   回复数:0
游客组