Asuka601
隐世仙人♂

[2023] [大陆] [剧情] [WEB-1080P] 斗破苍穹·觉醒[国语配音/中文字幕].Fights.Break.Sphere.2023.1080p.WEB-DL.H265.DDP5.1-DreamHD 2.4

-->

完整标题:斗破苍穹·觉醒[国语配音/中文字幕].Fights.Break.Sphere.2023.1080p.WEB-DL.H265.DDP5.1-DreamHD 2.49GB



◎标  题 斗破苍穹·觉醒
◎译  名 斗破苍穹 / 斗破苍穹电影版 / 电影斗破苍穹 / Fights Break Sphere
◎年  代 2023
◎产  地 中国大陆
◎类  别 剧情 / 动作 / 奇幻
◎语  言 汉语普通话
◎上映日期 2023-11-17(中国大陆网络)
◎IMDb链接 https://www.imdb.com/title//
◎豆瓣链接 https://movie.douban.com/subject/35461731/
◎导  演 赵小丁 Xiaoding Zhao
◎编  剧 天蚕土豆 Hu Li
◎演  员 马伯骞 Victor Ma
      李九霄 Jiuxiao Li
      张涵予 Hanyu Zhang
      高曙光 Shuguang Gao
      姜武 Wu Jiang
      胡静 Jing Hu
      黄雯 Wen Huang
      姜卓君 Zhuojun Jiang
      夏若妍 Ruoyan Xia
      靳阳阳 Yangyang Jin
      徐可珑 Kelong Xu
      张心一 Xinyi Zhang
      仇恩泽 En-ze Qiu

◎简  介
    影片是整个斗破宇宙故事的开端;天赋异禀的少年武者萧炎为了恢复斗气找回尊严,带着藏有“药老”灵魂的戒指,只身离开乌坦城,踏入诡谲险丽的魔兽山脉,苦苦寻找修炼提升斗气的秘法的试炼之路的开始。

点击图片可查看大图

软字幕无法在截图上展现,HDR版本/杜比视界版本截图会出现颜色异常,请使用支持的设备播放!

##### MediaInfo ######
General
Unique ID : 299618404838709667750060996617377955543 (0xE16867E0FDB4E4DF928911F876283ED7)
Complete name : Fights.Break.Sphere.2023.1080p.WEB-DL.H265.DDP5.1-DreamHD.mkv
Duration : 1 h 33 min
Overall bit rate : 3 835 kb/s

Video
ID : 1
Format : HEVC
Format/Info : High Efficiency Video Coding
Format profile : Main@L4@Main
Codec ID : V_MPEGH/ISO/HEVC
Duration : 1 h 33 min
Bit rate : 2 938 kb/s
Width : 1 920 pixels
Height : 800 pixels
Display aspect ratio : 2.40:1
Frame rate mode : Constant
Frame rate : 24.000 FPS
Color space : YUV
Chroma subsampling : 4:2:0
Bit depth : 8 bits
Bits/(Pixel*Frame) : 0.080
Stream size : 1.91 GiB (77%)
Default : Yes
Forced : No
Color range : Limited

Audio #1
ID : 2
Format : E-AC-3
Format/Info : Enhanced AC-3
Commercial name : Dolby Digital Plus
Codec ID : A_EAC3
Duration : 1 h 33 min
Bit rate mode : Constant
Bit rate : 448 kb/s
Channel(s) : 6 channels
Channel layout : L R C LFE Ls Rs
Sampling rate : 48.0 kHz
Frame rate : 31.250 FPS (1536 SPF)
Compression mode : Lossy
Stream size : 298 MiB (12%)
Title : Mandarin [DDP5.1]
Language : Chinese
Service kind : Complete Main
Default : Yes
Forced : No

Audio #2
ID : 3
Format : E-AC-3
Format/Info : Enhanced AC-3
Commercial name : Dolby Digital Plus
Codec ID : A_EAC3
Duration : 1 h 33 min
Bit rate mode : Constant
Bit rate : 256 kb/s
Channel(s) : 2 channels
Channel layout : L R
Sampling rate : 48.0 kHz
Frame rate : 31.250 FPS (1536 SPF)
Bit depth : 32 bits
Compression mode : Lossy
Delay relative to video : 27 ms
Stream size : 170 MiB (7%)
Title : Mandarin [DDP2.0]
Language : Chinese
Service kind : Complete Main
Default : No
Forced : No

Audio #3
ID : 4
Format : AAC LC
Format/Info : Advanced Audio Codec Low Complexity
Codec ID : A_AAC-2
Duration : 1 h 33 min
Bit rate : 192 kb/s
Channel(s) : 2 channels
Channel layout : L R
Sampling rate : 44.1 kHz
Frame rate : 43.066 FPS (1024 SPF)
Compression mode : Lossy
Stream size : 127 MiB (5%)
Title : Mandarin [AAC2.0]
Language : Chinese
Default : No
Forced : No


部分资源为软字幕,移动端推荐播放器:MxPlayer,nPlayer,infuse ,其他播放器请自行尝试。

部分资源为软字幕,电脑端推荐播放器:PotPlayer,完美解码,KMPLAYER,其他播放器请自行尝试。



1 个附件 售价 大小 下载 时间

Fights.Break.Sphere.2023.1080p.WEB-DL.H265.DDP5.1-DreamHD[1LOU.ME].torrent 0 金币 9.14K 1498 次 2月前

#1楼
发帖时间:2023-12-06 11:55:57   |   回复数:0
游客组