Asuka601
隐世仙人♂

[2012] [大陆] [剧情] [WEB-4K] 毕业那年[国语配音/中文字幕].That.Year.School.Ended.2012.WEB-DL.2160p.HEVC.AAC-NukeHD 2.25GB

-->

完整标题:毕业那年[国语配音/中文字幕].That.Year.School.Ended.2012.WEB-DL.2160p.HEVC.AAC-NukeHD 2.25GB



◎标  题 毕业那年
◎译  名 That Year School Ended
◎年  代 2012
◎产  地 中国大陆
◎类  别 剧情 / 音乐
◎语  言 汉语普通话
◎上映日期 2012-09-21(中国大陆)
◎IMDb链接 https://www.imdb.com/title//
◎豆瓣评分 4.0/10 (2184人评价)
◎豆瓣链接 https://movie.douban.com/subject/10759842/
◎片  长 88分钟
◎导  演 姚宇 Yu Yao
◎编  剧 仧縯 Yan Zhang
◎演  员 顾莉雅 Liya Gu
      朱文超 Wenchao Zhu
      叶青青 Qingqing Ye
      王仲欣 Kara Wong
      丁汀 Ting Ding
      龙飞 Fei Long
      龙泽 Ze Long

◎简  介
    某艺术大学的美术系学生艾拉(顾莉雅 饰)已经大四,是系里不可多得的灵魂人物。在一次辩论赛中,艾拉带领着同系好友吴婷婷(叶青青 饰)、苏露露(王仲欣 饰)等一路过关斩将,重创劲敌音乐系。音乐 系的大龙(龙飞 饰)、二龙(龙泽 饰)、富二代路人丁(丁汀 饰)以及旁听生三强不 甘就这样被几个黄毛丫头给打败,几个人找到才华横溢的康林(朱文超 饰)求救.....   吴婷婷为了吸引康林的注意,相约几个好友拉上康林一同KTV。吴婷婷设计陷害康林,让康林支付高额消费款。康林中计,不得已做了酒吧歌手。艾拉找到驻唱的康林,希望能够在经济上资助康林,让康林好好的完成学业。没想到康林却毫不领情。二人发生争执......十一远游,康林艾拉离开大队伍,来到当年康林上过的渔网小学。尽管小学依旧简陋,却挡不住孩子们对知识的渴望。艾拉和康林共同为小孩子们上课,这样的经历让两人都对彼此增添好感......   毕业了,艾拉出国去康林想上的大学,康林回到了故乡渔网小学....   四年后,同学们再聚首。路人丁不改初衷还在追求着吴婷婷。吴婷婷在梦中顿悟要珍惜眼前人,于是决定接受路人丁。学成归来的艾拉,难以割舍当初的爱恋,决定为爱,去找寻还在沙滩上渔网小学支教的康林。康林与艾拉的爱恋,不管能否经得起岁月的打磨,他们都将难以忘记,难以忘记毕业那年那些人那些事,或甜蜜或忧伤的故事……

点击图片可查看大图

软字幕无法在截图上展现,HDR版本/杜比视界版本截图会出现颜色异常,请使用支持的设备播放!

##### MediaInfo ######
General
Complete name : [毕业那年].That.Year.School.Ended.2012.WEB-DL.2160p.HEVC.DDP2.0-NukeHD.mp4
Duration : 1 h 28 min
Overall bit rate : 3 628 kb/s

Video
ID : 1
Format : HEVC
Format/Info : High Efficiency Video Coding
Format profile : Main@L5@Main
Codec ID : hev1
Codec ID/Info : High Efficiency Video Coding
Duration : 1 h 28 min
Bit rate : 3 497 kb/s
Width : 3 840 pixels
Height : 1 632 pixels
Display aspect ratio : 2.35:1
Frame rate mode : Constant
Frame rate : 25.000 FPS
Color space : YUV
Chroma subsampling : 4:2:0
Bit depth : 8 bits
Bits/(Pixel*Frame) : 0.022
Stream size : 2.17 GiB (96%)
Codec configuration box : hvcC

Audio
ID : 2
Format : AAC LC
Format/Info : Advanced Audio Codec Low Complexity
Codec ID : mp4a-40-2
Duration : 1 h 28 min
Bit rate mode : Constant
Bit rate : 124 kb/s
Channel(s) : 2 channels
Channel layout : L R
Sampling rate : 44.1 kHz
Frame rate : 43.066 FPS (1024 SPF)
Compression mode : Lossy
Stream size : 78.9 MiB (3%)
Default : Yes
Alternate group : 1


部分资源为软字幕,移动端推荐播放器:MxPlayer,nPlayer,infuse ,其他播放器请自行尝试。

部分资源为软字幕,电脑端推荐播放器:PotPlayer,完美解码,KMPLAYER,其他播放器请自行尝试。



1 个附件 售价 大小 下载 时间

That.Year.School.Ended.2012.WEB-DL.2160p.HEVC.AAC-NukeHD[1LOU.ME].torrent 0 金币 8.65K 833 次 2月前

#1楼
发帖时间:2023-12-06 11:52:47   |   回复数:0
游客组