Asuka601
隐世仙人♂

[2012] [大陆] [喜剧] [BD-1080P] 十二生肖[国粤语配音/中文字幕].Chinese.Zodiac.2012.BluRay.1080p.x265.10bit.TrueHD.5.1-NukeHD 9

-->

完整标题:十二生肖[国粤语配音/中文字幕].Chinese.Zodiac.2012.BluRay.1080p.x265.10bit.TrueHD.5.1-NukeHD 9.21GB



◎标  题 十二生肖
◎译  名 12生肖 / 生肖传说 / 飞鹰计划3 / 成龙计划 / Chinese Zodiac / Armour of God III / CZ12 / Rising Dragon
◎年  代 2012
◎产  地 中国大陆 / 中国香港
◎类  别 喜剧 / 动作 / 冒险
◎语  言 英语 / 汉语普通话 / 粤语 / 法语 / 西班牙语
◎上映日期 2012-12-20(中国大陆 / 中国香港) / 2012-12-12(中国香港电影节)
◎IMDb评分 6/10 (23557人评价)
◎IMDb链接 https://www.imdb.com/title/tt1424310/
◎豆瓣评分 6.8/10 (349247人评价)
◎豆瓣链接 https://movie.douban.com/subject/4212172/
◎片  长 122分钟
◎导  演 成龙 Jackie Chan
◎编  剧 成龙 Jackie Chan
      唐季礼 Stanley Tong
      邓景生 Edward Tang
      陈勋奇 Frankie Chan
      王丹卿 Danqing Wang
◎演  员 成龙 Jackie Chan
      权相宇 Sang-woo Kwon
      廖凡 Fan Liao
      姚星彤 Xingtong Yao
      张蓝心 Lanxin Zhang
      白露娜 Laura Weissbecker
      刘承俊 Sung-jun Yoo
      吴彦祖 Daniel Wu
      舒淇 Qi Shu
      李宗盛 Jonathan Lee
      陈柏霖 Bo-lin Chen
      卢惠光 Ken Lo
      耿长军 Asano Nagahide
      白冰 Bing Bai
      林鹏 Peng Lin
      崔浩博 Haobo Cui
      保罗·菲利普·克拉克 Paul Philip Clark
      吕克·本扎 Luc Bendza
      马修·雷·鲁格斯 Matthew Ray Ruggles
      奥利弗·普莱特 Oliver Platt
      阿拉·萨菲 Alaa Safi
      勃小龙 Pierre Bourdaud
      穆爱华 Charlotte MacInnis
      艾文·科蒂克 Ivan Kotik
      姜文 Wen Jiang
      罗伟 Robert Gilabert Cuenca
      梅丽安·布兰卡特 Myriam Blanckaert
      艾米丽·古利奥特 Emilie Guillot
      凯特琳·戴雪儿 Caitlin Dechelle
      林凤娇 Feng-Jiao Lin
      王庆祥 Qingxiang Wang

◎简  介
    当年英法联军火烧圆明园,致使大批珍贵文物流落海外,其中四尊十二生肖兽首最引人关注,不仅惹出国内外的广泛争论,更有收藏家开出天价竞拍这几尊珍品。当然,其间不乏奸邪的文物贩子,试图通过偷盗的手段获取宝贝。以此为契机,正在度假的国际大盗JC(成龙 饰)隆重登场。JC背后有一支 Simon(权相宇 饰)、David(廖凡 饰)、Bonnie(张蓝心 饰)等人共同组成的超专业团队,他们一同远赴巴黎,寻求国宝鉴定专家Coco(姚星彤 饰)的帮助。经过周密细致的准备,JC等人一步步逼近重兵把守的兽首,而围绕珍宝不可避免爆发连番惊险火爆的打斗与追逐。   在这一过程中,JC似曾被利益和金钱泯灭的爱国之心渐渐苏醒……

##### MediaInfo ######
General
Unique ID : 207730715029086715297771921056349672543 (0x9C477AFE669E619C6AE1CC9D8041D45F)
Complete name : Chinese.Zodiac.2012.BluRay.1080p.x265.10bit.TrueHD.5.1-NukeHD.mkv
Duration : 2 h 3 min
Overall bit rate mode : Variable
Overall bit rate : 10.7 Mb/s

Video
ID : 1
ID in the original source medium : 4113 (0x1011)
Format : HEVC
Format/Info : High Efficiency Video Coding
Format profile : Main [email protected]@High
Codec ID : V_MPEGH/ISO/HEVC
Duration : 2 h 3 min
Bit rate : 6 994 kb/s
Width : 1 920 pixels
Height : 816 pixels
Display aspect ratio : 2.35:1
Frame rate mode : Constant
Frame rate : 24.000 FPS
Color space : YUV
Chroma subsampling : 4:2:0 (Type 0)
Bit depth : 10 bits
Bits/(Pixel*Frame) : 0.186
Stream size : 6.01 GiB (65%)
Default : Yes
Forced : No
Color range : Limited
Color primaries : BT.709
Transfer characteristics : BT.709
Matrix coefficients : BT.709
Original source medium : Blu-ray

Audio #1
ID : 2
ID in the original source medium : 4352 (0x1100)
Format : MLP FBA
Format/Info : Meridian Lossless Packing FBA
Commercial name : Dolby TrueHD
Codec ID : A_TRUEHD
Duration : 2 h 3 min
Bit rate mode : Variable
Bit rate : 2 285 kb/s
Maximum bit rate : 3 798 kb/s
Channel(s) : 6 channels
Channel layout : L R C LFE Ls Rs
Sampling rate : 96.0 kHz
Frame rate : 1 200.000 FPS (80 SPF)
Compression mode : Lossless
Stream size : 1.96 GiB (21%)
Title : 粵語
Language : Chinese
Default : Yes
Forced : No
Original source medium : Blu-ray

Audio #2
ID : 3
ID in the original source medium : 4352 (0x1100)
Format : AC-3
Format/Info : Audio Coding 3
Commercial name : Dolby Digital
Codec ID : A_AC3
Duration : 2 h 3 min
Bit rate mode : Constant
Bit rate : 640 kb/s
Channel(s) : 6 channels
Channel layout : L R C LFE Ls Rs
Sampling rate : 48.0 kHz
Frame rate : 31.250 FPS (1536 SPF)
Compression mode : Lossy
Stream size : 563 MiB (6%)
Title : 粵語
Language : Chinese
Service kind : Complete Main
Default : Yes
Forced : No
Original source medium : Blu-ray

Audio #3
ID : 4
ID in the original source medium : 4353 (0x1101)
Format : AC-3
Format/Info : Audio Coding 3
Commercial name : Dolby Digital
Codec ID : A_AC3
Duration : 2 h 3 min
Bit rate mode : Constant
Bit rate : 640 kb/s
Channel(s) : 6 channels
Channel layout : L R C LFE Ls Rs
Sampling rate : 48.0 kHz
Frame rate : 31.250 FPS (1536 SPF)
Compression mode : Lossy
Stream size : 563 MiB (6%)
Title : 国语
Language : Chinese
Service kind : Complete Main
Default : Yes
Forced : No
Original source medium : Blu-ray

Text #1
ID : 5
ID in the original source medium : 4608 (0x1200)
Format : PGS
Muxing mode : zlib
Codec ID : S_HDMV/PGS
Codec ID/Info : Picture based subtitle format used on BDs/HD-DVDs
Duration : 1 h 55 min
Bit rate : 39.0 kb/s
Frame rate : 0.486 FPS
Count of elements : 3383
Stream size : 32.3 MiB (0%)
Title : 繁體中文
Language : Chinese
Default : Yes
Forced : No
Original source medium : Blu-ray

Text #2
ID : 6
ID in the original source medium : 4609 (0x1201)
Format : PGS
Muxing mode : zlib
Codec ID : S_HDMV/PGS
Codec ID/Info : Picture based subtitle format used on BDs/HD-DVDs
Duration : 1 h 55 min
Bit rate : 38.3 kb/s
Frame rate : 0.487 FPS
Count of elements : 3387
Stream size : 31.7 MiB (0%)
Title : 简体中文
Language : Chinese
Default : Yes
Forced : No
Original source medium : Blu-ray

Text #3
ID : 7
ID in the original source medium : 4610 (0x1202)
Format : PGS
Muxing mode : zlib
Codec ID : S_HDMV/PGS
Codec ID/Info : Picture based subtitle format used on BDs/HD-DVDs
Duration : 1 h 55 min
Bit rate : 45.4 kb/s
Frame rate : 0.488 FPS
Count of elements : 3393
Stream size : 37.7 MiB (0%)
Title : English
Language : English
Default : Yes
Forced : No
Original source medium : Blu-ray

Text #4
ID : 8
ID in the original source medium : 4611 (0x1203)
Format : PGS
Muxing mode : zlib
Codec ID : S_HDMV/PGS
Codec ID/Info : Picture based subtitle format used on BDs/HD-DVDs
Duration : 1 h 55 min
Bit rate : 38.9 kb/s
Frame rate : 0.547 FPS
Count of elements : 3803
Stream size : 32.2 MiB (0%)
Title : 繁體中文
Language : Chinese
Default : Yes
Forced : No
Original source medium : Blu-ray

Text #5
ID : 9
ID in the original source medium : 4612 (0x1204)
Format : PGS
Muxing mode : zlib
Codec ID : S_HDMV/PGS
Codec ID/Info : Picture based subtitle format used on BDs/HD-DVDs
Duration : 1 h 55 min
Bit rate : 38.1 kb/s
Frame rate : 0.547 FPS
Count of elements : 3806
Stream size : 31.6 MiB (0%)
Title : 简体中文
Language : Chinese
Default : Yes
Forced : No
Original source medium : Blu-ray

Text #6
ID : 10
ID in the original source medium : 4613 (0x1205)
Format : PGS
Muxing mode : zlib
Codec ID : S_HDMV/PGS
Codec ID/Info : Picture based subtitle format used on BDs/HD-DVDs
Duration : 1 h 55 min
Bit rate : 45.4 kb/s
Frame rate : 0.548 FPS
Count of elements : 3812
Stream size : 37.7 MiB (0%)
Title : English
Language : English
Default : Yes
Forced : No
Original source medium : Blu-ray

Menu
00:00:00.000 : en:第 01 章
00:11:29.291 : en:第 02 章
00:20:13.958 : en:第 03 章
00:30:03.583 : en:第 04 章
00:41:51.833 : en:第 05 章
00:50:59.791 : en:第 06 章
01:01:22.583 : en:第 07 章
01:11:17.500 : en:第 08 章
01:25:33.666 : en:第 09 章
01:35:54.416 : en:第 10 章
01:43:43.500 : en:第 11 章
01:50:39.000 : en:第 12 章


部分资源为软字幕,移动端推荐播放器:MxPlayer,nPlayer,infuse ,其他播放器请自行尝试。

部分资源为软字幕,电脑端推荐播放器:PotPlayer,完美解码,KMPLAYER,其他播放器请自行尝试。



1 个附件 售价 大小 下载 时间

Chinese.Zodiac.2012.BluRay.1080p.x265.10bit.TrueHD.5.1-NukeHD[1LOU.ME].torrent 0 金币 26.01K 1967 次 2月前

#1楼
发帖时间:2023-12-06 11:50:43   |   回复数:1
feung18
武林盟主
感謝樓主辛苦 !
2月前 #2楼
游客组