fg603603
一代宗师

[2014] [欧美] [剧情] [WEB-1080P] 葬礼访客 The.Funeral.Guest.2015.1080p.AMZN.WEBRip.DDP2.0.x264-THR 5.28GB

-->

帖子完整标题:葬礼访客 The.Funeral.Guest.2015.1080p.AMZN.WEBRip.DDP2.0.x264-THR 5.28GB



◎标  题 葬礼访客
◎片  名 The Funeral Guest
◎年  代 2014
◎产  地 美国
◎类  别 剧情 / 喜剧
◎语  言 英语
◎IMDb评分 5.3/10 (135人评价)
◎IMDb链接 https://www.imdb.com/title/tt3333920/
◎豆瓣链接 https://movie.douban.com/subject/25954644/
◎演  员 康斯坦斯·布伦尼曼 Constance Brenneman

◎标  签 美国电影 / 美国 / 2014 / 2015

Video
ID : 1
Format : AVC
Format/Info : Advanced Video Codec
Format profile : [email protected]
Format settings : CABAC / 4 Ref Frames
Format settings, CABAC : Yes
Format settings, Reference frames : 4 frames
Codec ID : V_MPEG4/ISO/AVC
Duration : 1 h 30 min
Bit rate mode : Constant
Bit rate : 8 152 kb/s
Nominal bit rate : 10 000 kb/s
Width : 1 920 pixels
Height : 1 080 pixels
Display aspect ratio : 16:9
Frame rate mode : Constant
Frame rate : 24.000 FPS
Color space : YUV
Chroma subsampling : 4:2:0
Bit depth : 8 bits
Scan type : Progressive
Bits/(Pixel*Frame) : 0.164
Stream size : 5.13 GiB (97%)
Default : Yes
Forced : No
Color range : Limited
Color primaries : BT.709
Transfer characteristics : BT.709
Matrix coefficients : BT.709

Audio
ID : 2
Format : E-AC-3
Format/Info : Enhanced AC-3
Commercial name : Dolby Digital Plus
Codec ID : A_EAC3
Duration : 1 h 30 min
Bit rate mode : Constant
Bit rate : 224 kb/s
Channel(s) : 2 channels
Channel layout : L R
Sampling rate : 48.0 kHz
Frame rate : 31.250 FPS (1536 SPF)
Compression mode : Lossy
Stream size : 144 MiB (3%)
Language : English
Service kind : Complete Main
Default : Yes
Forced : No

Text #1
ID : 3
Format : UTF-8
Codec ID : S_TEXT/UTF8
Codec ID/Info : UTF-8 Plain Text
Duration : 1 h 23 min
Bit rate : 49 b/s
Frame rate : 0.243 FPS
Count of elements : 1210
Stream size : 30.2 KiB (0%)
Language : English
Default : No
Forced : No

Text #2
ID : 4
Format : UTF-8
Codec ID : S_TEXT/UTF8
Codec ID/Info : UTF-8 Plain Text
Duration : 1 h 26 min
Bit rate : 49 b/s
Frame rate : 0.198 FPS
Count of elements : 1025
Stream size : 31.6 KiB (0%)
Language : Portuguese
Default : No
Forced : No

Text #3
ID : 5
Format : UTF-8
Codec ID : S_TEXT/UTF8
Codec ID/Info : UTF-8 Plain Text
Duration : 1 h 24 min
Bit rate : 48 b/s
Frame rate : 0.193 FPS
Count of elements : 982
Stream size : 30.0 KiB (0%)
Language : Spanish
Default : No
Forced : No





2 个附件 售价 大小 下载 时间

The.Funeral.Guest.2015.1080p.AMZN.WEBRip.DDP2.0.x264-THR.torrent 0 金币 13.83K 259 次 2月前

We.Hold.The.Line.2020.GERMAN.1080p.WEBRip.AAC2.0.x264-aTroCiTy.torrent 0 金币 17.90K 126 次 2月前

#1楼
发帖时间:2022-12-01 10:01:38   |   回复数:0
游客组