Eddie wang
管理员

[2021] [美国] [奇幻] [WEB-4K] 太阳召唤 第一季[杜比视界版本][全8集][中文字幕].Shadow.and.Bone.S01.2160p.NF.WEB-DL.DDP5.1.Atmos.DV.

-->

太阳召唤 第一季[杜比视界版本][全8集][中文字幕].Shadow.and.Bone.S01.2160p.NF.WEB-DL.DDP5.1.Atmos.DV.H.265-BlackTV 42.89GB




◎标  题 太阳召唤 第一季
◎片  名 Shadow and Bone Season 1
◎年  代 2021
◎产  地 美国
◎类  别 剧情 / 动作 / 奇幻
◎语  言 英语
◎上映日期 2021-04-23(美国)
◎IMDb评分 7.6/10 (86640人评价)
◎IMDb链接 https://www.imdb.com/title/tt2403776/
◎豆瓣评分 7.3/10 (5644人评价)
◎豆瓣链接 https://movie.douban.com/subject/30428349/
◎片  长 50分钟
◎导  演 梅尔西·阿尔马斯 Mairzee Almas
       李·托兰·克里格 Lee Toland Krieger
       杰里米·韦布 Jeremy Webb
        Dan Liu
◎编  剧 万尼亚·阿瑟 Vanya Asher
       Daegan Fryklind Daegan Fryklind
       埃里克·海瑟尔 Eric Heisserer
       克里斯蒂娜·斯特兰 Christina Strain
       李·巴杜格 Leigh Bardugo
◎演  员 洁西·梅·李 Jessie Mei Li
       阿奇·雷诺 Archie Renaux
       弗莱迪·卡特 Freddy Carter
       阿米塔·苏曼 Amita Suman
       本·巴恩斯 Ben Barnes
       西蒙·西尔斯 Simon Sears
       萨贾雅·达什古普塔 Sujaya Dasgupta
       朱利安·科斯托夫 Julian Kostov
       霍华德·查尔斯 Howard Charles
       丹尼尔·嘉利甘 Danielle Galligan
       佐伊·沃纳梅克 Zoë Wanamaker
       卡拉翰·斯克格曼 Calahan Skogman
       黛茜·海德 Daisy Head
       科迪·莫尔科 Cody Molko
       雨果·斯皮尔 Hugo Speer
       卢克·帕斯夸尼洛 Luke Pasqualino
       汤姆·韦斯顿-琼斯 Tom Weston-Jones
       伊丽莎白·里德 Elizabeth Rider
       佳思敏·布莱克波洛 Jasmine Blackborow
       迪恩·里侬斯·凯利 Dean Lennox Kelly
       凯文·埃尔登 Kevin Eldon
       卡罗琳·博尔顿 Caroline Boulton
       吉姆·海伊 Jim High
       大卫·韦雷 David Verrey
       艾玛·博科维奇 Emma Bercovici
       肖恩·吉尔德 Sean Gilder
       罗德里克·希尔 Roderick Hill
       Genesis Lynea Genesis Lynea
       戈登·莫里斯 Gordon Morris
       迪尔德丽·穆林斯 Deirdre Mullins
       Mark C. Phelan Mark C. Phelan
       罗宾·希纳西 Roby Schinasi
        Júlia Ubrankovics
       安迪·阿波罗 Andy Apollo
       尼克·康沃尔 Nick Cornwall
       卡特莉娜德登 Katrina Durden
       李丹 Dan Li
       詹姆斯·希利尔 James Hillier
       史蒂文哈特利 Steven Hartley
       基特·杨 Kit Young
       斯科特·亚历山大·杨 Scott Alexander Young
       凯特·拉塞尔-史密斯 Kate Russell-Smith
       小彼得·斯托亚诺夫 Peter Sztojanov Jr.
       汉娜·艾特伍德 Hannah Atwood
       露西·格里菲思 Lucy Griffiths
       George Parker George Parker
       Jesse Badger Jesse Badger
       Klári Tolnai Klári Tolnai
       凯莉·安德雷兹-班拉吉 Kelly Endresz-Banlaki
       塞巴斯蒂安·巴里 Josh S. Barry
       约瑟夫·特雷帕尼斯 Joseph Trapanese
       亚伦·莫顿 Aaron Morton
       泰勒·纳尔逊 Tyler Nelson
       Wendy Partridge Wendy Partridge

◎简  介
  《太阳召唤》根据利·巴杜戈全球畅销的“格里莎世界”小说改编,故事背景设定在一个饱受战争蹂躏的世界里,底层士兵、孤女阿丽娜·斯达科夫突然施展出一种非凡的力量,这可能是让她的国家重获自由的关键。随着暗影黑幕巨大威胁的迫近,阿丽娜被迫远离她所熟知的一切,并受训成为格里莎魔法精英军队的一员。但就在她努力磨练自己的力量时,她发现盟友和敌人可以是同一个人,而在这个繁华的世界里,一切都暗藏玄机。危险的力量正在崛起,其中包括一群魅力超凡的罪犯,要想生存下去,光靠魔法是不够的。《太阳召唤》是由 21 Laps Entertainment 出品的 Netflix 剧集,主演阵容包括洁西·梅·李(阿丽娜·斯达科夫)、阿奇·雷诺(玛里安·奥勒瑟夫)、弗莱迪·卡特(卡兹·布瑞克)、阿米塔·休曼(伊奈什)、基特·扬(杰斯帕·费伊)和本·巴恩斯(奇利甘将军)。
  1. ##### MediaInfo ######

  2. General

  3. Complete name                            : Shadow.and.Bone.S01E01.A.Searing.Burst.of.Light.2160p.NF.WEB-DL.DDP.5.1.Atmos.DV.H.265-BlackTV.mp4

  4. Format                                   : MPEG-4

  5. Format profile                           : Base Media

  6. Codec ID                                 : isom (isom)

  7. File size                                : 4.37 GiB

  8. Duration                                 : 52 min 27 s

  9. Overall bit rate mode                    : Variable

  10. Overall bit rate                         : 11.9 Mb/s

  11. Encoded date                             : UTC 2023-01-10 01:37:12

  12. Tagged date                              : UTC 2023-01-10 01:37:12

  13. Writing application                      : GPAC-2.0-rev0-g418db414-master


  14. Video

  15. ID                                       : 1

  16. Format                                   : HEVC

  17. Format/Info                              : High Efficiency Video Coding

  18. Format profile                           : Main 10@L5@Main

  19. HDR format                               : Dolby Vision, Version 1.0, dvhe.05.06, BL+RPU

  20. Codec ID                                 : dvhe

  21. Codec ID/Info                            : High Efficiency Video Coding with Dolby Vision

  22. Duration                                 : 52 min 27 s

  23. Bit rate                                 : 11.2 Mb/s

  24. Width                                    : 3 840 pixels

  25. Height                                   : 2 160 pixels

  26. Display aspect ratio                     : 16:9

  27. Frame rate mode                          : Constant

  28. Frame rate                               : 23.976 (24000/1001) FPS

  29. Color space                              : YUV

  30. Chroma subsampling                       : 4:2:0

  31. Bit depth                                : 10 bits

  32. Bits/(Pixel*Frame)                       : 0.056

  33. Stream size                              : 4.09 GiB (94%)

  34. Default                                  : No

  35. Encoded date                             : UTC 2023-01-10 01:35:48

  36. Tagged date                              : UTC 2023-01-10 01:37:38

  37. Color range                              : Full

  38. mdhd_Duration                            : 3147519

  39. Codec configuration box                  : hvcC+dvcC


  40. Audio

  41. ID                                       : 2

  42. Format                                   : E-AC-3 JOC

  43. Format/Info                              : Enhanced AC-3 with Joint Object Coding

  44. Commercial name                          : Dolby Digital Plus with Dolby Atmos

  45. Codec ID                                 : ec-3

  46. Duration                                 : 52 min 27 s

  47. Bit rate mode                            : Constant

  48. Bit rate                                 : 768 kb/s

  49. Maximum bit rate                         : 811 kb/s

  50. Channel(s)                               : 6 channels

  51. Channel layout                           : L R C LFE Ls Rs

  52. Sampling rate                            : 48.0 kHz

  53. Frame rate                               : 31.250 FPS (1536 SPF)

  54. Compression mode                         : Lossy

  55. Stream size                              : 288 MiB (6%)

  56. Language                                 : English

  57. Service kind                             : Complete Main

  58. Default                                  : Yes

  59. Alternate group                          : 1

  60. Encoded date                             : UTC 2021-07-30 13:49:23

  61. Tagged date                              : UTC 2023-01-10 01:37:38

  62. Complexity index                         : Not present / 16

  63. Number of dynamic objects                : 15

  64. Bed channel count                        : 1 channel

  65. Bed channel configuration                : LFE


  66. Text #1

  67. ID                                       : 3

  68. Format                                   : Timed Text

  69. Codec ID                                 : tx3g

  70. Duration                                 : 50 min 29 s

  71. Bit rate mode                            : Variable

  72. Bit rate                                 : 61 b/s

  73. Stream size                              : 22.4 KiB (0%)

  74. Title                                    : Simplified

  75. Language                                 : Chinese

  76. Forced                                   : No

  77. Encoded date                             : UTC 2023-01-10 01:37:37

  78. Tagged date                              : UTC 2023-01-10 01:37:38


  79. Text #2

  80. ID                                       : 4

  81. Format                                   : Timed Text

  82. Codec ID                                 : tx3g

  83. Duration                                 : 50 min 29 s

  84. Bit rate mode                            : Variable

  85. Bit rate                                 : 58 b/s

  86. Stream size                              : 21.6 KiB (0%)

  87. Title                                    : Traditional

  88. Language                                 : Chinese

  89. Forced                                   : No

  90. Encoded date                             : UTC 2023-01-10 01:37:38

  91. Tagged date                              : UTC 2023-01-10 01:37:38


复制代码


点击图片可查看大图

软字幕无法在截图上展现,HDR版本/杜比视界版本截图会出现颜色异常,请使用支持的设备播放!

部分资源为软字幕,移动端推荐播放器:MxPlayer,nPlayer,infuse ,其他播放器请自行尝试。

部分资源为软字幕,电脑端推荐播放器:PotPlayer,完美解码,KMPLAYER,其他播放器请自行尝试。




1 个附件 售价 大小 下载 时间

Shadow.and.Bone.S01.2160p.NF.WEB-DL.DDP5.1.Atmos.DV.H.265-BlackTV 42.89GB.torrent 0 金币 114.50K 11909 次 2023-1-10

#1楼
发帖时间:2023-01-10 17:47:26   |   回复数:0
游客组