Asuka601
隐世仙人♂

[更 早] [韩国] [剧情] [BD-1080P] 太白山脉[中文字幕/特效字幕].The.Taebaek.Mountains.1994.Bluray.1080p.DTS-HDMA2.0.x264-DreamHD

-->

完整标题:太白山脉[中文字幕/特效字幕].The.Taebaek.Mountains.1994.Bluray.1080p.DTS-HDMA2.0.x264-DreamHD 17.11GB



◎标  题 太白山脉
◎译  名 太白山 / The Taebaek Mountains / Taebaek sanmaek
◎片  名 태백산맥
◎年  代 1994
◎产  地 韩国
◎类  别 剧情 / 历史 / 战争
◎语  言 韩语
◎上映日期 1994-09-17(韩国)
◎IMDb评分 6.9/10 (226人评价)
◎IMDb链接 https://www.imdb.com/title/tt0111348/
◎豆瓣评分 8.4/10 (2585人评价)
◎豆瓣链接 https://movie.douban.com/subject/1401254/
◎片  长 168分钟
◎导  演 林权泽 Kwon-taek Im
◎编  剧 宋能汉 Neung-han Song
◎演  员 安圣基 Sung-kee Ahn
      方银振 Eun-jin Bang
      郑善京 Seon-kyeong Jeong
      金甲洙 Kap-su Kim
      吴侦孩 Jung-hae Oh
      金明坤 Myung-gon Kim
      申贤俊 Hyeon-jun Shin

◎简  介
    二战虽然结束,但它所遗留下的问题还余波震荡。美苏两大集团为了各自的利益在朝鲜半岛争端骤起,让企盼和平、渴望建立民主自由政府的朝鲜人民的愿望落空。国家分裂,战争再次降临,民族的苦难愈加深重。   破巢之下,安有完卵。在一个名叫筏桥的村庄,南北双方展开了拉锯战,村民则成为权力更迭过程中的牺牲品。村中的尚九(金甲洙 饰)和尚珍(金明坤 饰)两兄弟分属南北两个阵营,为了各自的信仰,他们付出了沉重的代价……   本片根据韩国同名历史小说改编,并荣获1994年青龙奖最佳影片奖。

点击图片可查看大图

软字幕无法在截图上展现,HDR版本/杜比视界版本截图会出现颜色异常,请使用支持的设备播放!

##### MediaInfo ######
General
Unique ID : 203979051941078222030891143160421125631 (0x9974EFB8F73EEEB57DB39380E3638DFF)
Complete name : The.Taebaek.Mountains.1994.Bluray.1080p.DTS-HDMA2.0.x264-DreamHD.mkv
Duration : 2 h 44 min
Overall bit rate mode : Variable
Overall bit rate : 14.9 Mb/s

Video
ID : 1
Format : AVC
Format/Info : Advanced Video Codec
Format profile : [email protected]
Format settings : CABAC / 4 Ref Frames
Format settings, CABAC : Yes
Format settings, Reference frames : 4 frames
Codec ID : V_MPEG4/ISO/AVC
Duration : 2 h 44 min
Bit rate : 13.2 Mb/s
Width : 1 920 pixels
Height : 1 080 pixels
Display aspect ratio : 16:9
Frame rate mode : Constant
Frame rate : 23.976 (24000/1001) FPS
Color space : YUV
Chroma subsampling : 4:2:0
Bit depth : 8 bits
Scan type : Progressive
Bits/(Pixel*Frame) : 0.266
Stream size : 15.2 GiB (89%)
Writing library : x264 core 164 r3094 bfc87b7
Encoding settings : cabac=1 / ref=4 / deblock=1:-3:-3 / analyse=0x3:0x133 / me=umh / subme=11 / psy=1 / psy_rd=1.00:0.00 / mixed_ref=1 / me_range=64 / chroma_me=1 / trellis=2 / 8x8dct=1 / cqm=0 / deadzone=21,11 / fast_pskip=0 / chroma_qp_offset=-2 / threads=34 / lookahead_threads=8 / sliced_threads=0 / nr=0 / decimate=0 / interlaced=0 / bluray_compat=0 / constrained_intra=0 / bframes=12 / b_pyramid=2 / b_adapt=2 / b_bias=0 / direct=3 / weightb=1 / open_gop=0 / weightp=2 / keyint=250 / keyint_min=23 / scenecut=40 / intra_refresh=0 / rc=crf / mbtree=0 / crf=17.0 / qcomp=0.70 / qpmin=0 / qpmax=69 / qpstep=4 / ip_ratio=1.30 / pb_ratio=1.20 / aq=3:0.80
Default : Yes
Forced : No
Color range : Limited
Color primaries : BT.709
Transfer characteristics : BT.709
Matrix coefficients : BT.709

Audio
ID : 2
ID in the original source medium : 4352 (0x1100)
Format : DTS XLL
Format/Info : Digital Theater Systems
Commercial name : DTS-HD Master Audio
Codec ID : A_DTS
Duration : 2 h 44 min
Bit rate mode : Variable
Bit rate : 1 574 kb/s
Channel(s) : 2 channels
Channel layout : L R
Sampling rate : 48.0 kHz
Frame rate : 93.750 FPS (512 SPF)
Bit depth : 24 bits
Compression mode : Lossless
Stream size : 1.81 GiB (11%)
Title : Korean
Language : Korean
Default : Yes
Forced : No
Original source medium : Blu-ray

Text #1
ID : 3
ID in the original source medium : 4609 (0x1201)
Format : PGS
Muxing mode : zlib
Codec ID : S_HDMV/PGS
Codec ID/Info : Picture based subtitle format used on BDs/HD-DVDs
Duration : 2 h 41 min
Bit rate : 60.0 kb/s
Frame rate : 0.559 FPS
Count of elements : 5403
Stream size : 69.2 MiB (0%)
Title : CHS
Language : Chinese
Default : Yes
Forced : No
Original source medium : Blu-ray

Text #2
ID : 4
ID in the original source medium : 4610 (0x1202)
Format : PGS
Muxing mode : zlib
Codec ID : S_HDMV/PGS
Codec ID/Info : Picture based subtitle format used on BDs/HD-DVDs
Duration : 2 h 41 min
Bit rate : 60.4 kb/s
Frame rate : 0.559 FPS
Count of elements : 5403
Stream size : 69.7 MiB (0%)
Title : CHT
Language : Chinese
Default : No
Forced : No
Original source medium : Blu-ray

Text #3
ID : 5
ID in the original source medium : 4608 (0x1200)
Format : PGS
Muxing mode : zlib
Codec ID : S_HDMV/PGS
Codec ID/Info : Picture based subtitle format used on BDs/HD-DVDs
Duration : 2 h 41 min
Bit rate : 41.7 kb/s
Frame rate : 0.409 FPS
Count of elements : 3955
Stream size : 48.0 MiB (0%)
Title : ENG
Language : English
Default : No
Forced : No
Original source medium : Blu-ray

Menu
00:00:00.000 : en:Chapter 01
00:07:45.798 : en:Chapter 02
00:16:19.561 : en:Chapter 03
00:24:34.681 : en:Chapter 04
00:31:46.613 : en:Chapter 05
00:39:20.441 : en:Chapter 06
00:48:20.939 : en:Chapter 07
00:56:09.366 : en:Chapter 08
01:03:30.473 : en:Chapter 09
01:13:17.309 : en:Chapter 10
01:19:37.689 : en:Chapter 11
01:29:15.475 : en:Chapter 12
01:39:01.477 : en:Chapter 13
01:46:02.397 : en:Chapter 14
01:50:28.580 : en:Chapter 15
01:57:24.370 : en:Chapter 16
02:08:35.499 : en:Chapter 17
02:16:27.012 : en:Chapter 18
02:23:03.741 : en:Chapter 19
02:33:57.144 : en:Chapter 20


部分资源为软字幕,移动端推荐播放器:MxPlayer,nPlayer,infuse ,其他播放器请自行尝试。

部分资源为软字幕,电脑端推荐播放器:PotPlayer,完美解码,KMPLAYER,其他播放器请自行尝试。



2 个附件 售价 大小 下载 时间

The.Taebaek.Mountains.1994.Bluray.1080p.DTS-HDMA2.0.x264-DreamHD[1LOU.ME].torrent 0 金币 45.96K 1085 次 1月前

The.Taebaek.Mountains.1994.Bluray.1080p.DTS-HDMA2.0.x264-DreamHD[1LOU.ME].torrent 0 金币 45.96K 511 次 1月前

#1楼
发帖时间:2024-02-23 20:01:14   |   回复数:1
liyouchai
隐世仙人♂
谢谢楼主分享资源
1月前 #2楼
游客组