Asuka601
隐世仙人♂

[2022] [欧美] [剧情] [BD-1080P] 永恒的女儿[简繁英字幕].The.Eternal.Daughter.2022.1080p.BluRay.x265.10bit.DTS-SONYHD 4.09GB

-->

完整标题:永恒的女儿[简繁英字幕].The.Eternal.Daughter.2022.1080p.BluRay.x265.10bit.DTS-SONYHD 4.09GB



◎标  题 永恒的女儿
◎译  名 庄园魅影(台)
◎片  名 The Eternal Daughter
◎年  代 2022
◎产  地 美国 / 英国
◎类  别 剧情 / 悬疑
◎语  言 英语
◎上映日期 2022-09-06(威尼斯电影节) / 2022-12-02(美国)
◎IMDb评分 6/10 (5400人评价)
◎IMDb链接 https://www.imdb.com/title/tt13874422/
◎豆瓣评分 5.6/10 (1387人评价)
◎豆瓣链接 https://movie.douban.com/subject/35332885/
◎片  长 96分钟
◎导  演 乔安娜·霍格 Joanna Hogg
◎编  剧 乔安娜·霍格 Joanna Hogg
◎演  员 蒂尔达·斯文顿 Tilda Swinton
      卡尔利-索菲娅·戴维斯 Carly-Sophia Davies
      津尼娅·戴维斯-库克 Zinnia Davies-Cooke
      奥古斯特·乔希 August Joshi
      路易斯 Louis
      约瑟夫·迈德尔 Joseph Mydell
      阿尔菲·桑凯-格林 Alfie Sankey-Green

◎简  介
    蒂尔达·斯文顿的秘密主演新片曝光:她于疫情期间在威尔士拍摄了一部鬼故事片《永恒的女儿》(The Eternal Daughter),继《纪念品》后再次与导演乔安娜·霍格合作。   A24最新拿下该片全球版权,已拍完进入后期制作阶段,讲述一个中年女子与年迈母亲回到她们以前的家——一个旧日的大庄园,如今变成了一间空荡荡的酒店,充满神秘,母女俩将必须面对一些埋藏了很长时间的秘密。   该片演员阵容还包括约瑟夫·迈德尔、卡莉·戴维斯和阿尔菲·桑基·格林,由Element Pictures(《宠儿》《房间》)和JWH Films(《纪念品》)制作,BBC影业也加入,马丁·斯科塞斯担任执行制片人。

##### MediaInfo ######
General
Unique ID : 95729873060972803876586932383474744154 (0x4804E7251CF710FBB32E3512A63F7B5A)
Complete name : The.Eternal.Daughter.2022.1080p.BluRay.x265.10bit.DTS-SONYHD.mkv
Duration : 1 h 35 min
Overall bit rate : 6 106 kb/s

Video
ID : 1
Format : HEVC
Format/Info : High Efficiency Video Coding
Format profile : Main 10@L5@Main
Codec ID : V_MPEGH/ISO/HEVC
Duration : 1 h 35 min
Bit rate : 4 532 kb/s
Width : 1 800 pixels
Height : 1 080 pixels
Display aspect ratio : 5:3
Frame rate mode : Constant
Frame rate : 23.976 (24000/1001) FPS
Color space : YUV
Chroma subsampling : 4:2:0
Bit depth : 10 bits
Bits/(Pixel*Frame) : 0.097
Stream size : 3.04 GiB (74%)
Writing library : x265 3.5g2b25c9ba0+45:[Windows][GCC 10.2.0][64 bit] Yuuki 10bit+8bit+12bit
Encoding settings : rc=crf / crf=19.5000 / qcomp=0.60 / qpstep=4 / stats-write=0 / stats-read=0 / no-lossless / no-cu-lossless / aq-mode=3 / aq-strength=0.90 / cbqpoffs=0 / crqpoffs=0 / ipratio=1.40 / pbratio=1.30 / psy-rd=2.00 / psy-rdoq=0.00 / deblock=0:0 / ref=6 / limit-refs=1 / no-limit-modes / bframes=8 / b-adapt=2 / bframe-bias=0 / b-pyramid / b-intra / weightp / weightb / min-keyint=24 / max-keyint=240 / rc-lookahead=24 / gop-lookahead=0 / scenecut=40 / hist-scenecut=0 / radl=0 / max-cu-size=64 / min-cu-size=8 / me=3 / subme=7 / merange=48 / rdoq-level=0 / rd=4 / rdpenalty=0 / dynamic-rd=0.00 / no-rd-refine / ----- / cutree / sao / no-rect / no-amp / no-open-gop / wpp / no-pmode / no-pme / no-psnr / no-ssim / nr-intra=0 / nr-inter=0 / no-constrained-intra / no-strong-intra-smoothing / max-tu-size=32 / tu-inter-depth=1 / tu-intra-depth=1 / limit-tu=0 / qg-size=32 / qpmax=69 / qpmin=0 / ----- / cpuid=1111039 / frame-threads=5 / numa-pools=+ / log-level=2 / input-csp=1 / input-res=1800x1080 / interlace=0 / level-idc=0 / high-tier=1 / uhd-bd=0 / no-allow-non-conformance / no-repeat-headers / aud / no-hrd / info / hash=0 / no-temporal-layers / lookahead-slices=0 / no-splice / no-intra-refresh / no-ssim-rd / signhide / no-tskip / max-merge=3 / temporal-mvp / no-frame-dup / no-hme / no-analyze-src-pics / no-sao-non-deblock / selective-sao=4 / early-skip / rskip / no-fast-intra / no-tskip-fast / no-splitrd-skip / zone-count=0 / no-strict-cbr / no-rc-grain / no-const-vbv / sar=0 / overscan=0 / videoformat=5 / range=0 / colorprim=2 / transfer=2 / colormatrix=2 / chromaloc=0 / display-window=0 / cll=0,0 / min-luma=0 / max-luma=1023 / log2-max-poc-lsb=8 / vui-timing-info / vui-hrd-info / slices=1 / no-opt-qp-pps / no-opt-ref-list-length-pps / no-multi-pass-opt-rps / scenecut-bias=0.05 / hist-threshold=0.03 / no-opt-cu-delta-qp / no-aq-motion / no-hdr10 / no-hdr10-opt / no-dhdr10-opt / no-idr-recovery-sei / analysis-reuse-level=0 / analysis-save-reuse-level=0 / analysis-load-reuse-level=0 / scale-factor=0 / refine-intra=0 / refine-inter=0 / refine-mv=1 / refine-ctu-distortion=0 / no-limit-sao / ctu-info=0 / no-lowpass-dct / refine-analysis-type=0 / copy-pic=1 / max-ausize-factor=1.0 / no-dynamic-refine / no-single-sei / no-hevc-aq / no-svt / no-field / qp-adaptation-range=1.00 / scenecut-aware-qp=0conformance-window-offsets / right=0 / bottom=0 / decoder-max-rate=0 / no-vbv-live-multi-pass
Language : English
Default : Yes
Forced : No

Audio
ID : 2
ID in the original source medium : 4352 (0x1100)
Format : DTS
Format/Info : Digital Theater Systems
Codec ID : A_DTS
Duration : 1 h 35 min
Bit rate mode : Constant
Bit rate : 1 509 kb/s
Channel(s) : 6 channels
Channel layout : C L R Ls Rs LFE
Sampling rate : 48.0 kHz
Frame rate : 93.750 FPS (512 SPF)
Bit depth : 24 bits
Compression mode : Lossy
Stream size : 1.01 GiB (25%)
Language : English
Default : Yes
Forced : No
Original source medium : Blu-ray

Text #1
ID : 3
ID in the original source medium : 4609 (0x1201)
Format : PGS
Muxing mode : zlib
Codec ID : S_HDMV/PGS
Codec ID/Info : Picture based subtitle format used on BDs/HD-DVDs
Duration : 1 h 31 min
Bit rate : 35.6 kb/s
Frame rate : 0.253 FPS
Count of elements : 1390
Stream size : 23.4 MiB (1%)
Title : chs&eng
Language : Chinese
Default : Yes
Forced : No
Original source medium : Blu-ray

Text #2
ID : 4
ID in the original source medium : 4610 (0x1202)
Format : PGS
Muxing mode : zlib
Codec ID : S_HDMV/PGS
Codec ID/Info : Picture based subtitle format used on BDs/HD-DVDs
Duration : 1 h 31 min
Bit rate : 35.7 kb/s
Frame rate : 0.253 FPS
Count of elements : 1390
Stream size : 23.4 MiB (1%)
Title : cht&eng
Language : Chinese
Default : No
Forced : No
Original source medium : Blu-ray

Text #3
ID : 5
ID in the original source medium : 4611 (0x1203)
Format : PGS
Muxing mode : zlib
Codec ID : S_HDMV/PGS
Codec ID/Info : Picture based subtitle format used on BDs/HD-DVDs
Duration : 1 h 31 min
Bit rate : 21.5 kb/s
Frame rate : 0.253 FPS
Count of elements : 1390
Stream size : 14.1 MiB (0%)
Title : chs
Language : Chinese
Default : No
Forced : No
Original source medium : Blu-ray

Text #4
ID : 6
ID in the original source medium : 4612 (0x1204)
Format : PGS
Muxing mode : zlib
Codec ID : S_HDMV/PGS
Codec ID/Info : Picture based subtitle format used on BDs/HD-DVDs
Duration : 1 h 31 min
Bit rate : 21.6 kb/s
Frame rate : 0.253 FPS
Count of elements : 1390
Stream size : 14.2 MiB (0%)
Title : cht
Language : Chinese
Default : No
Forced : No
Original source medium : Blu-ray

Text #5
ID : 7
ID in the original source medium : 4608 (0x1200)
Format : PGS
Muxing mode : zlib
Codec ID : S_HDMV/PGS
Codec ID/Info : Picture based subtitle format used on BDs/HD-DVDs
Duration : 1 h 30 min
Bit rate : 29.4 kb/s
Frame rate : 0.385 FPS
Count of elements : 2090
Stream size : 19.0 MiB (0%)
Title : eng
Language : English
Default : No
Forced : No
Original source medium : Blu-ray

Menu
00:00:00.000 : en:Chapter 01
00:07:52.013 : en:Chapter 02
00:14:38.669 : en:Chapter 03
00:24:45.150 : en:Chapter 04
00:34:28.107 : en:Chapter 05
00:39:36.916 : en:Chapter 06
00:48:29.114 : en:Chapter 07
00:58:29.923 : en:Chapter 08
01:04:19.730 : en:Chapter 09
01:11:07.221 : en:Chapter 10
01:20:59.229 : en:Chapter 11
01:27:28.034 : en:Chapter 12


部分资源为软字幕,移动端推荐播放器:MxPlayer,nPlayer,infuse ,其他播放器请自行尝试。

部分资源为软字幕,电脑端推荐播放器:PotPlayer,完美解码,KMPLAYER,其他播放器请自行尝试。



1 个附件 售价 大小 下载 时间

The.Eternal.Daughter.2022.1080p.BluRay.x265.10bit.DTS-SONYHD[1LOU.ME].torrent 0 金币 13.31K 868 次 1月前

#1楼
发帖时间:2024-02-23 19:59:32   |   回复数:0
游客组