Asuka601
隐世仙人♂

[2017] [其它] [剧情] [BD-1080P] 蝴蝶树[简繁英字幕].The.Butterfly.Tree.2017.1080p.BluRay.x264.DTS-SONYHD 10.09GB

-->

完整标题:蝴蝶树[简繁英字幕].The.Butterfly.Tree.2017.1080p.BluRay.x264.DTS-SONYHD 10.09GB



◎标  题 蝴蝶树
◎译  名 The Insect King
◎片  名 The Butterfly Tree
◎年  代 2017
◎产  地 澳大利亚
◎类  别 剧情
◎语  言 英语
◎上映日期 2017-09-10(多伦多国际电影节)
◎IMDb评分 5.5/10 (569人评价)
◎IMDb链接 https://www.imdb.com/title/tt3719948/
◎豆瓣评分 6.0/10 (454人评价)
◎豆瓣链接 https://movie.douban.com/subject/26850946/
◎片  长 97分钟
◎导  演 普丽西拉·卡梅伦 Priscilla Cameron
◎编  剧 普丽西拉·卡梅伦 Priscilla Cameron
◎演  员 梅利莎·乔治 Melissa George
      伊文·莱斯利 Ewen Leslie
      艾德·奥克森博尔德 Ed Oxenbould
      苏菲·洛 Sophie Lowe
      艾拉·杰兹·麦克罗卡尼斯 Ella Jaz Macrokanis
      劳伦·迪隆 Lauren Dillon
      宝拉·纳扎斯基 Paula Nazarski
      史蒂夫·内申 Steve Nation
      利亚姆·霍普·耶克·道兹 Liam Hop Yek Dodds
      山姆·柯顿 Sam Cotton
      克里斯蒂·布鲁克斯 Kristy Brooks

◎简  介
    艾弗琳是一个舞蹈皇后,她对生活的高雅情调让单身爸爸艾尔和他的儿子芬着迷。当这对父子发现彼此为同一个女人而着迷的时候,他们之间关于芬母亲之死的旧伤复发。父子俩通过活泼的艾弗琳芬学会了原谅的力量,并且为了家庭放弃女神。在这部感人的影片中,这两个男人都学会了无私之爱的力量。

##### MediaInfo ######
General
Unique ID : 138658318859942660381610883020536377413 (0x68509EEEEA9C6657FC71DC7558B77045)
Complete name : The.Butterfly.Tree.2017.1080p.BluRay.x264.DTS-SONYHD.mkv
Duration : 1 h 36 min
Overall bit rate : 15.0 Mb/s

Video
ID : 1
Format : AVC
Format/Info : Advanced Video Codec
Format profile : [email protected]
Format settings : CABAC / 4 Ref Frames
Format settings, CABAC : Yes
Format settings, Reference frames : 4 frames
Codec ID : V_MPEG4/ISO/AVC
Duration : 1 h 36 min
Bit rate : 13.5 Mb/s
Width : 1 920 pixels
Height : 856 pixels
Display aspect ratio : 2.25:1
Frame rate mode : Constant
Frame rate : 23.976 (24000/1001) FPS
Color space : YUV
Chroma subsampling : 4:2:0
Bit depth : 8 bits
Scan type : Progressive
Bits/(Pixel*Frame) : 0.342
Stream size : 9.04 GiB (90%)
Writing library : x264 core 164 r3107+55M 1028c06 t_mod_New [(8 & 10)-bit@all X86_64]
Encoding settings : cabac=1 / ref=4 / deblock=1:-3:-3 / analyse=0x3:0x133 / me=umh / subme=11 / psy=1 / fade_compensate=0.00 / psy_rd=1.00:0.00 / mixed_ref=1 / me_range=48 / chroma_me=1 / trellis=2 / 8x8dct=1 / cqm=0 / deadzone=21,11 / fast_pskip=0 / chroma_qp_offset=-3 / threads=27 / lookahead_threads=6 / sliced_threads=0 / nr=0 / decimate=0 / interlaced=0 / bluray_compat=0 / constrained_intra=0 / fgo=0 / bframes=11 / b_pyramid=2 / b_adapt=2 / b_bias=0 / direct=3 / weightb=1 / open_gop=0 / weightp=2 / keyint=240 / keyint_min=1 / scenecut=40 / intra_refresh=0 / rc_lookahead=72 / rc=crf / mbtree=0 / crf=17.5000 / qcomp=0.60 / qpmin=0:0:0 / qpmax=69:69:69 / qpstep=4 / vbv_maxrate=62500 / vbv_bufsize=78125 / crf_max=0.0 / nal_hrd=none / filler=0 / ip_ratio=1.40 / pb_ratio=1.30 / aq=3:0.90 / aq-sensitivity=10.00 / aq-factor=1.00:1.00:1.00 / aq2=0 / aq3=0
Language : English
Default : Yes
Forced : No

Audio
ID : 2
ID in the original source medium : 4352 (0x1100)
Format : DTS
Format/Info : Digital Theater Systems
Codec ID : A_DTS
Duration : 1 h 36 min
Bit rate mode : Constant
Bit rate : 1 509 kb/s
Channel(s) : 6 channels
Channel layout : C L R Ls Rs LFE
Sampling rate : 48.0 kHz
Frame rate : 93.750 FPS (512 SPF)
Bit depth : 24 bits
Compression mode : Lossy
Delay relative to video : 3 ms
Stream size : 1.01 GiB (10%)
Language : English
Default : Yes
Forced : No
Original source medium : Blu-ray

Text #1
ID : 3
ID in the original source medium : 4609 (0x1201)
Format : PGS
Muxing mode : zlib
Codec ID : S_HDMV/PGS
Codec ID/Info : Picture based subtitle format used on BDs/HD-DVDs
Duration : 1 h 26 min
Bit rate : 24.6 kb/s
Frame rate : 0.266 FPS
Count of elements : 1384
Stream size : 15.3 MiB (0%)
Title : chs&eng
Language : Chinese
Default : Yes
Forced : No
Original source medium : Blu-ray

Text #2
ID : 4
ID in the original source medium : 4610 (0x1202)
Format : PGS
Muxing mode : zlib
Codec ID : S_HDMV/PGS
Codec ID/Info : Picture based subtitle format used on BDs/HD-DVDs
Duration : 1 h 26 min
Bit rate : 24.7 kb/s
Frame rate : 0.266 FPS
Count of elements : 1384
Stream size : 15.3 MiB (0%)
Title : cht&eng
Language : Chinese
Default : No
Forced : No
Original source medium : Blu-ray

Text #3
ID : 5
ID in the original source medium : 4611 (0x1203)
Format : PGS
Muxing mode : zlib
Codec ID : S_HDMV/PGS
Codec ID/Info : Picture based subtitle format used on BDs/HD-DVDs
Duration : 1 h 26 min
Bit rate : 14.8 kb/s
Frame rate : 0.266 FPS
Count of elements : 1384
Stream size : 9.20 MiB (0%)
Title : chs
Language : Chinese
Default : No
Forced : No
Original source medium : Blu-ray

Text #4
ID : 6
ID in the original source medium : 4612 (0x1204)
Format : PGS
Muxing mode : zlib
Codec ID : S_HDMV/PGS
Codec ID/Info : Picture based subtitle format used on BDs/HD-DVDs
Duration : 1 h 26 min
Bit rate : 15.0 kb/s
Frame rate : 0.266 FPS
Count of elements : 1384
Stream size : 9.28 MiB (0%)
Title : cht
Language : Chinese
Default : No
Forced : No
Original source medium : Blu-ray

Text #5
ID : 7
ID in the original source medium : 4608 (0x1200)
Format : PGS
Muxing mode : zlib
Codec ID : S_HDMV/PGS
Codec ID/Info : Picture based subtitle format used on BDs/HD-DVDs
Duration : 1 h 33 min
Bit rate : 19.1 kb/s
Frame rate : 0.247 FPS
Count of elements : 1384
Stream size : 12.8 MiB (0%)
Title : eng
Language : English
Default : No
Forced : No
Original source medium : Blu-ray

Menu
00:00:00.000 : en:Chapter 01
00:08:42.605 : en:Chapter 02
00:19:20.367 : en:Chapter 03
00:29:34.314 : en:Chapter 04
00:40:02.566 : en:Chapter 05
00:50:33.947 : en:Chapter 06
00:59:17.554 : en:Chapter 07
01:08:56.507 : en:Chapter 08
01:19:56.750 : en:Chapter 09
01:29:15.558 : en:Chapter 10


部分资源为软字幕,移动端推荐播放器:MxPlayer,nPlayer,infuse ,其他播放器请自行尝试。

部分资源为软字幕,电脑端推荐播放器:PotPlayer,完美解码,KMPLAYER,其他播放器请自行尝试。



1 个附件 售价 大小 下载 时间

The.Butterfly.Tree.2017.1080p.BluRay.x264.DTS-SONYHD[1LOU.ME].torrent 0 金币 28.29K 693 次 1月前

#1楼
发帖时间:2024-02-23 19:57:16   |   回复数:0
游客组