Asuka601
隐世仙人♂

[2022] [欧美] [剧情] [BD-1080P] 卧床休养期[简繁英字幕].Bed.Rest.2022.1080p.BluRay.x265.10bit.DTS-SONYHD 6.33GB

-->

完整标题:卧床休养期[简繁英字幕].Bed.Rest.2022.1080p.BluRay.x265.10bit.DTS-SONYHD 6.33GB



◎标  题 卧床休养期
◎译  名 鬼臥床(台)
◎片  名 Bed Rest
◎年  代 2022
◎产  地 美国
◎类  别 剧情 / 悬疑 / 恐怖
◎语  言 英语
◎上映日期 2022-11-30(阿联酋) / 2022-12-07(美国)
◎IMDb评分 5.1/10 (3244人评价)
◎IMDb链接 https://www.imdb.com/title/tt4896168/
◎豆瓣评分 5.1/10 (336人评价)
◎豆瓣链接 https://movie.douban.com/subject/30312847/
◎片  长 90分钟
◎导  演 布莱德利·帕克 Bradley Parker
◎编  剧 洛丽·埃文斯·泰勒 Lori Evans Taylor
◎演  员 梅丽莎·巴雷拉 Melissa Barrera
      克里斯汀·哈里斯 Kristen Harris
      埃里克·阿塔瓦尔 Erik Athavale
      Frederick Allen Frederick Allen
      盖·布耐特 Guy Burnet

◎简  介
    A pregnant women on bed rest begin to wonder if her house is haunted or it's all in her head.

##### MediaInfo ######
General
Unique ID : 178864709172944582999246553032477464649 (0x869017063E8372BFB77E8F6866195849)
Complete name : Bed.Rest.2022.1080p.BluRay.x265.10bit.DTS-SONYHD.mkv
Duration : 1 h 30 min
Overall bit rate : 10.0 Mb/s

Video
ID : 1
Format : HEVC
Format/Info : High Efficiency Video Coding
Format profile : Main 10@L5@Main
Codec ID : V_MPEGH/ISO/HEVC
Duration : 1 h 30 min
Bit rate : 8 475 kb/s
Width : 1 920 pixels
Height : 1 036 pixels
Display aspect ratio : 1.85:1
Frame rate mode : Constant
Frame rate : 23.976 (24000/1001) FPS
Color space : YUV
Chroma subsampling : 4:2:0
Bit depth : 10 bits
Bits/(Pixel*Frame) : 0.178
Stream size : 5.35 GiB (85%)
Writing library : x265 3.5g2b25c9ba0+45:[Windows][GCC 10.2.0][64 bit] Yuuki 10bit+8bit+12bit
Encoding settings : rc=crf / crf=17.2000 / qcomp=0.60 / qpstep=4 / stats-write=0 / stats-read=0 / no-lossless / no-cu-lossless / aq-mode=3 / aq-strength=0.90 / cbqpoffs=0 / crqpoffs=0 / ipratio=1.40 / pbratio=1.30 / psy-rd=2.00 / psy-rdoq=0.00 / deblock=0:0 / ref=6 / limit-refs=1 / no-limit-modes / bframes=8 / b-adapt=2 / bframe-bias=0 / b-pyramid / b-intra / weightp / weightb / min-keyint=24 / max-keyint=240 / rc-lookahead=24 / gop-lookahead=0 / scenecut=40 / hist-scenecut=0 / radl=0 / max-cu-size=64 / min-cu-size=8 / me=3 / subme=7 / merange=48 / rdoq-level=0 / rd=4 / rdpenalty=0 / dynamic-rd=0.00 / no-rd-refine / ----- / cutree / sao / no-rect / no-amp / no-open-gop / wpp / no-pmode / no-pme / no-psnr / no-ssim / nr-intra=0 / nr-inter=0 / no-constrained-intra / no-strong-intra-smoothing / max-tu-size=32 / tu-inter-depth=1 / tu-intra-depth=1 / limit-tu=0 / qg-size=32 / qpmax=69 / qpmin=0 / ----- / cpuid=1111039 / frame-threads=5 / numa-pools=+ / log-level=2 / input-csp=1 / input-res=1920x1036 / interlace=0 / level-idc=0 / high-tier=1 / uhd-bd=0 / no-allow-non-conformance / repeat-headers / aud / no-hrd / info / hash=0 / no-temporal-layers / lookahead-slices=0 / no-splice / no-intra-refresh / no-ssim-rd / signhide / no-tskip / max-merge=3 / temporal-mvp / no-frame-dup / no-hme / no-analyze-src-pics / no-sao-non-deblock / selective-sao=4 / early-skip / rskip / no-fast-intra / no-tskip-fast / no-splitrd-skip / zone-count=0 / no-strict-cbr / no-rc-grain / no-const-vbv / sar=0 / overscan=0 / videoformat=5 / range=0 / colorprim=2 / transfer=2 / colormatrix=2 / chromaloc=0 / display-window=0 / cll=0,0 / min-luma=0 / max-luma=1023 / log2-max-poc-lsb=8 / vui-timing-info / vui-hrd-info / slices=1 / no-opt-qp-pps / no-opt-ref-list-length-pps / no-multi-pass-opt-rps / scenecut-bias=0.05 / hist-threshold=0.03 / no-opt-cu-delta-qp / no-aq-motion / no-hdr10 / no-hdr10-opt / no-dhdr10-opt / no-idr-recovery-sei / analysis-reuse-level=0 / analysis-save-reuse-level=0 / analysis-load-reuse-level=0 / scale-factor=0 / refine-intra=0 / refine-inter=0 / refine-mv=1 / refine-ctu-distortion=0 / no-limit-sao / ctu-info=0 / no-lowpass-dct / refine-analysis-type=0 / copy-pic=1 / max-ausize-factor=1.0 / no-dynamic-refine / no-single-sei / no-hevc-aq / no-svt / no-field / qp-adaptation-range=1.00 / scenecut-aware-qp=0conformance-window-offsets / right=0 / bottom=0 / decoder-max-rate=0 / no-vbv-live-multi-pass
Default : Yes
Forced : No

Audio
ID : 2
ID in the original source medium : 4353 (0x1101)
Format : DTS
Format/Info : Digital Theater Systems
Codec ID : A_DTS
Duration : 1 h 30 min
Bit rate mode : Constant
Bit rate : 1 509 kb/s
Channel(s) : 6 channels
Channel layout : C L R Ls Rs LFE
Sampling rate : 48.0 kHz
Frame rate : 93.750 FPS (512 SPF)
Bit depth : 16 bits
Compression mode : Lossy
Stream size : 975 MiB (15%)
Title : English
Language : English
Default : Yes
Forced : No
Original source medium : Blu-ray

Text #1
ID : 3
ID in the original source medium : 4611 (0x1203)
Format : PGS
Muxing mode : zlib
Codec ID : S_HDMV/PGS
Codec ID/Info : Picture based subtitle format used on BDs/HD-DVDs
Duration : 1 h 25 min
Bit rate : 29.0 kb/s
Frame rate : 0.452 FPS
Count of elements : 2325
Stream size : 17.8 MiB (0%)
Title : chs
Language : Chinese
Default : Yes
Forced : No
Original source medium : Blu-ray

Text #2
ID : 4
ID in the original source medium : 4612 (0x1204)
Format : PGS
Muxing mode : zlib
Codec ID : S_HDMV/PGS
Codec ID/Info : Picture based subtitle format used on BDs/HD-DVDs
Duration : 1 h 25 min
Bit rate : 29.7 kb/s
Frame rate : 0.452 FPS
Count of elements : 2325
Stream size : 18.2 MiB (0%)
Title : cht
Language : Chinese
Default : No
Forced : No
Original source medium : Blu-ray

Text #3
ID : 5
ID in the original source medium : 4609 (0x1201)
Format : PGS
Muxing mode : zlib
Codec ID : S_HDMV/PGS
Codec ID/Info : Picture based subtitle format used on BDs/HD-DVDs
Duration : 1 h 29 min
Bit rate : 29.7 kb/s
Frame rate : 0.415 FPS
Count of elements : 2214
Stream size : 18.9 MiB (0%)
Title : eng
Language : English
Default : No
Forced : No
Original source medium : Blu-ray

Menu
00:00:00.000 : en:Chapter 01
00:05:39.714 : en:Chapter 02
00:11:47.998 : en:Chapter 03
00:19:28.584 : en:Chapter 04
00:27:42.369 : en:Chapter 05
00:36:30.146 : en:Chapter 06
00:43:39.575 : en:Chapter 07
00:51:51.233 : en:Chapter 08
01:04:03.923 : en:Chapter 09
01:11:15.229 : en:Chapter 10
01:21:55.911 : en:Chapter 11
01:25:46.141 : en:Chapter 12


部分资源为软字幕,移动端推荐播放器:MxPlayer,nPlayer,infuse ,其他播放器请自行尝试。

部分资源为软字幕,电脑端推荐播放器:PotPlayer,完美解码,KMPLAYER,其他播放器请自行尝试。



1 个附件 售价 大小 下载 时间

Bed.Rest.2022.1080p.BluRay.x265.10bit.DTS-SONYHD[1LOU.ME].torrent 0 金币 18.89K 735 次 1月前

#1楼
发帖时间:2024-02-23 19:54:04   |   回复数:0
游客组