Asuka601
隐世仙人♂

[2021] [其它] [剧情] [BD-1080P] 一个英雄[中文字幕].A.Hero.2021.BluRay.1080p.AAC2.0.x264-DreamHD 3.75GB

-->

完整标题:一个英雄[中文字幕].A.Hero.2021.BluRay.1080p.AAC2.0.x264-DreamHD 3.75GB



◎标  题 一个英雄
◎译  名 我不是英雄(台) / 伊朗式英雄(港) / A Hero
◎片  名 قهرمان
◎年  代 2021
◎产  地 伊朗 / 法国
◎类  别 剧情
◎语  言 波斯语
◎上映日期 2021-07-13(戛纳电影节) / 2022-01-07(美国) / 2022-01-21(美国网络)
◎IMDb评分 7.5/10 (26229人评价)
◎IMDb链接 https://www.imdb.com/title/tt11777738/
◎豆瓣评分 7.6/10 (4992人评价)
◎豆瓣链接 https://movie.douban.com/subject/34966906/
◎片  长 127分钟
◎导  演 阿斯加·法哈蒂 Asghar Farhadi
◎编  剧 阿斯加·法哈蒂 Asghar Farhadi
◎演  员 阿米尔·扎迪迪 Amir Jadidi
      莫森·坦纳班德 Mohsen Tanabandeh
      弗里施特·萨德尔·奥拉法耶 Fereshteh Sadre Orafaiy
      伊桑·古德尔基 Ehsan Goodarzi
      萨日娜·法哈蒂 Sarina Farhadi

◎简  介
    拉辛(阿米尔贾迪迪 饰)因为欠债而入狱,在为期两天的假释裡,他的女友意外捡到一个装有17枚金币的手提包。拉辛原本想把这些金币转卖还债,但是可卖出的金额却远远不够还债。因此,拉辛决定转而寻找手提包的主人,希望能藉此获得一些奖金,没想到他的这项“义举”却意外在社群媒体上爆红……

点击图片可查看大图

软字幕无法在截图上展现,HDR版本/杜比视界版本截图会出现颜色异常,请使用支持的设备播放!

##### MediaInfo ######
General
Complete name : A.Hero.2021.BluRay.1080p.iPad.AAC2.0.x264-DreamHD.mp4
Duration : 2 h 7 min
Overall bit rate : 4 197 kb/s

Video
ID : 1
Format : AVC
Format/Info : Advanced Video Codec
Format profile : [email protected]
Format settings : 5 Ref Frames
Format settings, CABAC : No
Format settings, Reference frames : 5 frames
Codec ID : avc1
Codec ID/Info : Advanced Video Coding
Duration : 2 h 7 min
Bit rate : 3 998 kb/s
Width : 1 920 pixels
Height : 1 080 pixels
Display aspect ratio : 16:9
Frame rate mode : Constant
Frame rate : 24.000 FPS
Color space : YUV
Chroma subsampling : 4:2:0
Bit depth : 8 bits
Scan type : Progressive
Bits/(Pixel*Frame) : 0.080
Stream size : 3.57 GiB (95%)
Writing library : x264 core 164 r3100 ed0f7a6
Encoding settings : cabac=0 / ref=5 / deblock=0:0:0 / analyse=0x1:0x111 / me=hex / subme=8 / psy=1 / psy_rd=1.00:0.00 / mixed_ref=1 / me_range=16 / chroma_me=1 / trellis=2 / 8x8dct=0 / cqm=0 / deadzone=21,11 / fast_pskip=1 / chroma_qp_offset=-2 / threads=24 / lookahead_threads=4 / sliced_threads=0 / nr=0 / decimate=1 / interlaced=0 / bluray_compat=0 / constrained_intra=0 / bframes=3 / b_pyramid=2 / b_adapt=1 / b_bias=0 / direct=3 / weightb=0 / open_gop=0 / weightp=0 / keyint=240 / keyint_min=24 / scenecut=40 / intra_refresh=0 / rc_lookahead=50 / rc=2pass / mbtree=1 / bitrate=4000 / ratetol=1.0 / qcomp=0.60 / qpmin=0 / qpmax=69 / qpstep=4 / cplxblur=20.0 / qblur=0.5 / vbv_maxrate=800000 / vbv_bufsize=800000 / nal_hrd=none / filler=0 / ip_ratio=1.40 / aq=1:1.00
Encoded date : UTC 2024-02-22 14:18:23
Tagged date : UTC 2024-02-22 14:18:23
Color range : Limited
Color primaries : BT.709
Transfer characteristics : BT.709
Matrix coefficients : BT.709
Menus : 3
Codec configuration box : avcC

Audio
ID : 2
Format : AAC LC
Format/Info : Advanced Audio Codec Low Complexity
Codec ID : mp4a-40-2
Duration : 2 h 7 min
Source duration : 2 h 7 min
Bit rate mode : Constant
Bit rate : 192 kb/s
Channel(s) : 2 channels
Channel layout : L R
Sampling rate : 48.0 kHz
Frame rate : 46.875 FPS (1024 SPF)
Compression mode : Lossy
Stream size : 177 MiB (5%)
Source stream size : 177 MiB (5%)
Title : Stereo
Language : Spanish
Default : Yes
Alternate group : 1
Encoded date : UTC 2024-02-22 14:18:23
Tagged date : UTC 2024-02-22 14:18:23
Menus : 3

Menu
ID : 3
Format : Timed Text
Codec ID : text
Duration : 2 h 7 min
Language : English
Encoded date : UTC 2024-02-22 14:18:23
Tagged date : UTC 2024-02-22 14:18:23
Bit rate mode : CBR
Menu For : 1,2
00:00:00.000 : 第 01 章
00:11:46.500 : 第 02 章
00:23:13.667 : 第 03 章
00:34:44.750 : 第 04 章
00:44:11.625 : 第 05 章
00:58:10.375 : 第 06 章
01:07:47.625 : 第 07 章
01:15:38.667 : 第 08 章
01:24:35.542 : 第 09 章
01:31:23.625 : 第 10 章
01:39:45.125 : 第 11 章
01:53:00.708 : 第 12 章
Bit rate mode : Constant


部分资源为软字幕,移动端推荐播放器:MxPlayer,nPlayer,infuse ,其他播放器请自行尝试。

部分资源为软字幕,电脑端推荐播放器:PotPlayer,完美解码,KMPLAYER,其他播放器请自行尝试。



1 个附件 售价 大小 下载 时间

A.Hero.2021.BluRay.1080p.AAC2.0.x264-DreamHD[1LOU.ME].torrent 0 金币 12.50K 567 次 1月前

#1楼
发帖时间:2024-02-23 19:52:32   |   回复数:0
游客组