Asuka601
隐世仙人♂

[2021] [其它] [剧情] [BD-1080P] 一个英雄[中文字幕].A.Hero.2021.BluRay.1080p.DTS-HDMA5.1.x265.10bit-DreamHD 6.23GB

-->

完整标题:一个英雄[中文字幕].A.Hero.2021.BluRay.1080p.DTS-HDMA5.1.x265.10bit-DreamHD 6.23GB



◎标  题 一个英雄
◎译  名 我不是英雄(台) / 伊朗式英雄(港) / A Hero
◎片  名 قهرمان
◎年  代 2021
◎产  地 伊朗 / 法国
◎类  别 剧情
◎语  言 波斯语
◎上映日期 2021-07-13(戛纳电影节) / 2022-01-07(美国) / 2022-01-21(美国网络)
◎IMDb评分 7.5/10 (26229人评价)
◎IMDb链接 https://www.imdb.com/title/tt11777738/
◎豆瓣评分 7.6/10 (4992人评价)
◎豆瓣链接 https://movie.douban.com/subject/34966906/
◎片  长 127分钟
◎导  演 阿斯加·法哈蒂 Asghar Farhadi
◎编  剧 阿斯加·法哈蒂 Asghar Farhadi
◎演  员 阿米尔·扎迪迪 Amir Jadidi
      莫森·坦纳班德 Mohsen Tanabandeh
      弗里施特·萨德尔·奥拉法耶 Fereshteh Sadre Orafaiy
      伊桑·古德尔基 Ehsan Goodarzi
      萨日娜·法哈蒂 Sarina Farhadi

◎简  介
    拉辛(阿米尔贾迪迪 饰)因为欠债而入狱,在为期两天的假释裡,他的女友意外捡到一个装有17枚金币的手提包。拉辛原本想把这些金币转卖还债,但是可卖出的金额却远远不够还债。因此,拉辛决定转而寻找手提包的主人,希望能藉此获得一些奖金,没想到他的这项“义举”却意外在社群媒体上爆红……

##### MediaInfo ######
General
Unique ID : 134835156438375874472345460514710477207 (0x65704E79047B11B64FD33A5174DDD997)
Complete name : A.Hero.2021.BluRay.1080p.DTS-HDMA5.1.x265.10bit-DreamHD.mkv
Duration : 2 h 7 min
Overall bit rate mode : Variable
Overall bit rate : 6 978 kb/s

Video
ID : 1
Format : HEVC
Format/Info : High Efficiency Video Coding
Format profile : Main [email protected]@High
Codec ID : V_MPEGH/ISO/HEVC
Duration : 2 h 7 min
Bit rate : 3 321 kb/s
Width : 1 920 pixels
Height : 804 pixels
Display aspect ratio : 2.40:1
Frame rate mode : Constant
Frame rate : 24.000 FPS
Color space : YUV
Chroma subsampling : 4:2:0 (Type 2)
Bit depth : 10 bits
Bits/(Pixel*Frame) : 0.090
Stream size : 2.96 GiB (48%)
Writing library : x265 3.5+100-3dae0c3cc:[Windows][GCC 12.2.0][64 bit] 10bit
Encoding settings : cpuid=1111039 / frame-threads=4 / numa-pools=16 / wpp / no-pmode / no-pme / no-psnr / no-ssim / log-level=2 / input-csp=1 / input-res=1920x804 / interlace=0 / total-frames=184018 / level-idc=51 / high-tier=1 / uhd-bd=0 / ref=6 / no-allow-non-conformance / no-repeat-headers / annexb / no-aud / no-eob / no-eos / no-hrd / info / hash=0 / temporal-layers=0 / no-open-gop / min-keyint=24 / keyint=250 / gop-lookahead=0 / bframes=14 / b-adapt=2 / b-pyramid / bframe-bias=0 / rc-lookahead=75 / lookahead-slices=5 / scenecut=40 / no-hist-scenecut / radl=0 / no-splice / no-intra-refresh / ctu=32 / min-cu-size=8 / no-rect / no-amp / max-tu-size=32 / tu-inter-depth=1 / tu-intra-depth=1 / limit-tu=0 / rdoq-level=0 / dynamic-rd=0.00 / no-ssim-rd / signhide / no-tskip / nr-intra=0 / nr-inter=0 / no-constrained-intra / no-strong-intra-smoothing / max-merge=3 / limit-refs=1 / no-limit-modes / me=3 / subme=7 / merange=48 / temporal-mvp / no-frame-dup / hme / Level / merange / L0,L1,L2=24,36,48 / weightp / weightb / no-analyze-src-pics / deblock=0:0 / sao / no-sao-non-deblock / rd=4 / selective-sao=4 / early-skip / rskip / no-fast-intra / no-tskip-fast / no-cu-lossless / b-intra / no-splitrd-skip / rdpenalty=2 / psy-rd=2.00 / psy-rdoq=0.00 / no-rd-refine / no-lossless / cbqpoffs=0 / crqpoffs=0 / rc=crf / crf=15.0 / qcomp=0.60 / qpstep=4 / stats-write=0 / stats-read=0 / vbv-maxrate=160000 / vbv-bufsize=160000 / vbv-init=0.9 / min-vbv-fullness=50.0 / max-vbv-fullness=80.0 / crf-max=0.0 / crf-min=0.0 / ipratio=1.40 / pbratio=1.30 / aq-mode=1 / aq-strength=1.00 / cutree / zone-count=0 / no-strict-cbr / qg-size=32 / no-rc-grain / qpmax=69 / qpmin=0 / no-const-vbv / sar=0 / overscan=0 / videoformat=5 / range=0 / colorprim=1 / transfer=1 / colormatrix=1 / chromaloc=1 / chromaloc-top=2 / chromaloc-bottom=2 / display-window=0 / cll=0,0 / min-luma=0 / max-luma=1023 / log2-max-poc-lsb=8 / vui-timing-info / vui-hrd-info / slices=1 / no-opt-qp-pps / no-opt-ref-list-length-pps / no-multi-pass-opt-rps / scenecut-bias=0.05 / no-opt-cu-delta-qp / aq-motion / no-hdr10 / no-hdr10-opt / no-dhdr10-opt / no-idr-recovery-sei / analysis-reuse-level=0 / analysis-save-reuse-level=0 / analysis-load-reuse-level=0 / scale-factor=0 / refine-intra=0 / refine-inter=0 / refine-mv=1 / refine-ctu-distortion=0 / no-limit-sao / ctu-info=0 / no-lowpass-dct / refine-analysis-type=0 / copy-pic=1 / max-ausize-factor=1.0 / no-dynamic-refine / no-single-sei / no-hevc-aq / no-svt / no-field / qp-adaptation-range=1.00 / scenecut-aware-qp=0conformance-window-offsets / right=0 / bottom=0 / decoder-max-rate=0 / no-vbv-live-multi-pass / no-mcstf / no-sbrc
Default : Yes
Forced : No
Color range : Limited
Color primaries : BT.709
Transfer characteristics : BT.709
Matrix coefficients : BT.709

Audio #1
ID : 2
ID in the original source medium : 4352 (0x1100)
Format : DTS XLL
Format/Info : Digital Theater Systems
Commercial name : DTS-HD Master Audio
Codec ID : A_DTS
Duration : 2 h 7 min
Bit rate mode : Variable
Bit rate : 1 789 kb/s
Channel(s) : 6 channels
Channel layout : C L R Ls Rs LFE
Sampling rate : 48.0 kHz
Frame rate : 93.750 FPS (512 SPF)
Bit depth : 16 bits
Compression mode : Lossless
Stream size : 1.60 GiB (26%)
Language : Spanish
Default : Yes
Forced : No
Original source medium : Blu-ray

Audio #2
ID : 3
ID in the original source medium : 4353 (0x1101)
Format : DTS XLL
Format/Info : Digital Theater Systems
Commercial name : DTS-HD Master Audio
Codec ID : A_DTS
Duration : 2 h 7 min
Bit rate mode : Variable
Bit rate : 1 763 kb/s
Channel(s) : 6 channels
Channel layout : C L R Ls Rs LFE
Sampling rate : 48.0 kHz
Frame rate : 93.750 FPS (512 SPF)
Bit depth : 16 bits
Compression mode : Lossless
Stream size : 1.57 GiB (25%)
Language : Persian
Default : Yes
Forced : No
Original source medium : Blu-ray

Text #1
ID : 4
ID in the original source medium : 4608 (0x1200)
Format : PGS
Codec ID : S_HDMV/PGS
Codec ID/Info : Picture based subtitle format used on BDs/HD-DVDs
Duration : 2 h 6 min
Bit rate : 40.1 kb/s
Frame rate : 0.509 FPS
Count of elements : 3864
Stream size : 36.3 MiB (1%)
Language : Spanish
Default : Yes
Forced : No
Original source medium : Blu-ray

Text #2
ID : 5
ID in the original source medium : 4612 (0x1204)
Format : PGS
Codec ID : S_HDMV/PGS
Codec ID/Info : Picture based subtitle format used on BDs/HD-DVDs
Duration : 2 h 3 min
Bit rate : 29.4 kb/s
Frame rate : 0.437 FPS
Count of elements : 3241
Stream size : 26.0 MiB (0%)
Title : Chs
Language : Chinese
Default : Yes
Forced : No
Original source medium : Blu-ray

Text #3
ID : 6
ID in the original source medium : 4613 (0x1205)
Format : PGS
Codec ID : S_HDMV/PGS
Codec ID/Info : Picture based subtitle format used on BDs/HD-DVDs
Duration : 2 h 3 min
Bit rate : 32.9 kb/s
Frame rate : 0.437 FPS
Count of elements : 3241
Stream size : 29.1 MiB (0%)
Title : Cht
Language : Chinese
Default : Yes
Forced : No
Original source medium : Blu-ray

Menu
00:00:00.000 : en:第 01 章
00:11:46.333 : en:第 02 章
00:23:13.666 : en:第 03 章
00:34:44.750 : en:第 04 章
00:44:11.458 : en:第 05 章
00:58:10.375 : en:第 06 章
01:07:47.458 : en:第 07 章
01:15:38.666 : en:第 08 章
01:24:35.541 : en:第 09 章
01:31:23.458 : en:第 10 章
01:39:44.958 : en:第 11 章
01:53:00.583 : en:第 12 章


部分资源为软字幕,移动端推荐播放器:MxPlayer,nPlayer,infuse ,其他播放器请自行尝试。

部分资源为软字幕,电脑端推荐播放器:PotPlayer,完美解码,KMPLAYER,其他播放器请自行尝试。



1 个附件 售价 大小 下载 时间

A.Hero.2021.BluRay.1080p.DTS-HDMA5.1.x265.10bit-DreamHD[1LOU.ME].torrent 0 金币 18.73K 847 次 1月前

#1楼
发帖时间:2024-02-23 19:51:49   |   回复数:0
游客组