Asuka601
隐世仙人♂

[2021] [其它] [剧情] [BD-1080P] 一个英雄[中文字幕].A.Hero.2021.BluRay.1080p.DTS-HDMA5.1.x264-DreamHD 8.52GB

-->

完整标题:一个英雄[中文字幕].A.Hero.2021.BluRay.1080p.DTS-HDMA5.1.x264-DreamHD 8.52GB



◎标  题 一个英雄
◎译  名 我不是英雄(台) / 伊朗式英雄(港) / A Hero
◎片  名 قهرمان
◎年  代 2021
◎产  地 伊朗 / 法国
◎类  别 剧情
◎语  言 波斯语
◎上映日期 2021-07-13(戛纳电影节) / 2022-01-07(美国) / 2022-01-21(美国网络)
◎IMDb评分 7.5/10 (26229人评价)
◎IMDb链接 https://www.imdb.com/title/tt11777738/
◎豆瓣评分 7.6/10 (4992人评价)
◎豆瓣链接 https://movie.douban.com/subject/34966906/
◎片  长 127分钟
◎导  演 阿斯加·法哈蒂 Asghar Farhadi
◎编  剧 阿斯加·法哈蒂 Asghar Farhadi
◎演  员 阿米尔·扎迪迪 Amir Jadidi
      莫森·坦纳班德 Mohsen Tanabandeh
      弗里施特·萨德尔·奥拉法耶 Fereshteh Sadre Orafaiy
      伊桑·古德尔基 Ehsan Goodarzi
      萨日娜·法哈蒂 Sarina Farhadi

◎简  介
    拉辛(阿米尔贾迪迪 饰)因为欠债而入狱,在为期两天的假释裡,他的女友意外捡到一个装有17枚金币的手提包。拉辛原本想把这些金币转卖还债,但是可卖出的金额却远远不够还债。因此,拉辛决定转而寻找手提包的主人,希望能藉此获得一些奖金,没想到他的这项“义举”却意外在社群媒体上爆红……

##### MediaInfo ######
General
Unique ID : 33883365600660527682546022416413150021 (0x197DB2E75AD08FD1509FF05DF97CCB45)
Complete name : A.Hero.2021.BluRay.1080p.DTS-HDMA5.1.x264-DreamHD.mkv
Duration : 2 h 7 min
Overall bit rate mode : Variable
Overall bit rate : 9 543 kb/s

Video
ID : 1
Format : AVC
Format/Info : Advanced Video Codec
Format profile : [email protected]
Format settings : CABAC / 5 Ref Frames
Format settings, CABAC : Yes
Format settings, Reference frames : 5 frames
Codec ID : V_MPEG4/ISO/AVC
Duration : 2 h 7 min
Bit rate : 5 886 kb/s
Width : 1 920 pixels
Height : 804 pixels
Display aspect ratio : 2.40:1
Frame rate mode : Constant
Frame rate : 24.000 FPS
Color space : YUV
Chroma subsampling : 4:2:0
Bit depth : 8 bits
Scan type : Progressive
Bits/(Pixel*Frame) : 0.159
Stream size : 5.25 GiB (62%)
Writing library : x264 core 164 r3106 eaa68fa
Encoding settings : cabac=1 / ref=5 / deblock=1:-3:-3 / analyse=0x3:0x133 / me=umh / subme=11 / psy=1 / psy_rd=1.00:0.00 / mixed_ref=1 / me_range=64 / chroma_me=1 / trellis=2 / 8x8dct=1 / cqm=0 / deadzone=21,11 / fast_pskip=0 / chroma_qp_offset=-2 / threads=24 / lookahead_threads=6 / sliced_threads=0 / nr=0 / decimate=0 / interlaced=0 / bluray_compat=0 / constrained_intra=0 / bframes=12 / b_pyramid=2 / b_adapt=2 / b_bias=0 / direct=3 / weightb=1 / open_gop=0 / weightp=2 / keyint=250 / keyint_min=24 / scenecut=40 / intra_refresh=0 / rc=crf / mbtree=0 / crf=17.0 / qcomp=0.70 / qpmin=0 / qpmax=69 / qpstep=4 / ip_ratio=1.30 / pb_ratio=1.20 / aq=3:0.80
Default : Yes
Forced : No
Color range : Limited
Color primaries : BT.709
Matrix coefficients : BT.709

Audio #1
ID : 2
ID in the original source medium : 4352 (0x1100)
Format : DTS XLL
Format/Info : Digital Theater Systems
Commercial name : DTS-HD Master Audio
Codec ID : A_DTS
Duration : 2 h 7 min
Bit rate mode : Variable
Bit rate : 1 789 kb/s
Channel(s) : 6 channels
Channel layout : C L R Ls Rs LFE
Sampling rate : 48.0 kHz
Frame rate : 93.750 FPS (512 SPF)
Bit depth : 16 bits
Compression mode : Lossless
Stream size : 1.60 GiB (19%)
Language : Spanish
Default : Yes
Forced : No
Original source medium : Blu-ray

Audio #2
ID : 3
ID in the original source medium : 4353 (0x1101)
Format : DTS XLL
Format/Info : Digital Theater Systems
Commercial name : DTS-HD Master Audio
Codec ID : A_DTS
Duration : 2 h 7 min
Bit rate mode : Variable
Bit rate : 1 763 kb/s
Channel(s) : 6 channels
Channel layout : C L R Ls Rs LFE
Sampling rate : 48.0 kHz
Frame rate : 93.750 FPS (512 SPF)
Bit depth : 16 bits
Compression mode : Lossless
Stream size : 1.57 GiB (18%)
Language : Persian
Default : Yes
Forced : No
Original source medium : Blu-ray

Text #1
ID : 4
ID in the original source medium : 4608 (0x1200)
Format : PGS
Codec ID : S_HDMV/PGS
Codec ID/Info : Picture based subtitle format used on BDs/HD-DVDs
Duration : 2 h 6 min
Bit rate : 40.1 kb/s
Frame rate : 0.509 FPS
Count of elements : 3864
Stream size : 36.3 MiB (0%)
Language : Spanish
Default : Yes
Forced : No
Original source medium : Blu-ray

Text #2
ID : 5
ID in the original source medium : 4612 (0x1204)
Format : PGS
Codec ID : S_HDMV/PGS
Codec ID/Info : Picture based subtitle format used on BDs/HD-DVDs
Duration : 2 h 3 min
Bit rate : 29.4 kb/s
Frame rate : 0.437 FPS
Count of elements : 3241
Stream size : 26.0 MiB (0%)
Title : Chs
Language : Chinese
Default : Yes
Forced : No
Original source medium : Blu-ray

Text #3
ID : 6
ID in the original source medium : 4613 (0x1205)
Format : PGS
Codec ID : S_HDMV/PGS
Codec ID/Info : Picture based subtitle format used on BDs/HD-DVDs
Duration : 2 h 3 min
Bit rate : 32.9 kb/s
Frame rate : 0.437 FPS
Count of elements : 3241
Stream size : 29.1 MiB (0%)
Title : Cht
Language : Chinese
Default : Yes
Forced : No
Original source medium : Blu-ray

Menu
00:00:00.000 : en:第 01 章
00:11:46.333 : en:第 02 章
00:23:13.666 : en:第 03 章
00:34:44.750 : en:第 04 章
00:44:11.458 : en:第 05 章
00:58:10.375 : en:第 06 章
01:07:47.458 : en:第 07 章
01:15:38.666 : en:第 08 章
01:24:35.541 : en:第 09 章
01:31:23.458 : en:第 10 章
01:39:44.958 : en:第 11 章
01:53:00.583 : en:第 12 章


部分资源为软字幕,移动端推荐播放器:MxPlayer,nPlayer,infuse ,其他播放器请自行尝试。

部分资源为软字幕,电脑端推荐播放器:PotPlayer,完美解码,KMPLAYER,其他播放器请自行尝试。



1 个附件 售价 大小 下载 时间

A.Hero.2021.BluRay.1080p.DTS-HDMA5.1.x264-DreamHD[1LOU.ME].torrent 0 金币 24.44K 847 次 1月前

#1楼
发帖时间:2024-02-23 19:51:02   |   回复数:0
游客组