Asuka601
隐世仙人♂

[更 早] [欧美] [动作] [BD-1080P] 变形黑侠[简繁英字幕].Darkman.1990.1080p.BluRay.x265.10bit.DTS-SONYHD 5.07GB

-->

完整标题:变形黑侠[简繁英字幕].Darkman.1990.1080p.BluRay.x265.10bit.DTS-SONYHD 5.07GB



◎标  题 变形黑侠
◎译  名 魔侠震天雷(台) / 隐形黑侠
◎片  名 Darkman
◎年  代 1990
◎产  地 美国
◎类  别 动作 / 科幻 / 惊悚
◎语  言 英语
◎上映日期 1990-08-24
◎IMDb评分 6.4/10 (66371人评价)
◎IMDb链接 https://www.imdb.com/title/tt0099365/
◎豆瓣评分 6.6/10 (1556人评价)
◎豆瓣链接 https://movie.douban.com/subject/1300209/
◎片  长 96 分钟
◎导  演 山姆·雷米 Sam Raimi
◎编  剧 山姆·雷米 Sam Raimi
      查克·费尔 Chuck Pfarrer
◎演  员 连姆·尼森 Liam Neeson
      弗兰西斯·麦克多蒙德 Frances McDormand
      科林·弗瑞尔斯 Colin Friels
      拉里·德雷克 Larry Drake
      丹·希克斯 Dan Hicks
      泰德·雷米 Ted Raimi
      Nicholas Worth Nicholas Worth
      阿隆·鲁斯汀 Aaron Lustig
      布鲁斯·坎贝尔 Bruce Campbell
      乔尔·科恩 Joel Coen
      伊桑·科恩 Ethan Coen
      尼尔·麦克唐纳 Neal McDonough
      布里奇特·霍夫曼 Bridget Hoffman
      托尼·加德纳 Tony Gardner
      Carl Bresk Carl Bresk
      威廉·迪尔 William Dear
      田中通教授 Professor Toru Tanaka
      斯科特·斯皮格尔 Scott Spiegel
      肖恩·丹尼尔 Sean Daniel
      约翰·兰迪斯 John Landis
      珍妮·艾加特 Jenny Agutter
      约翰·卡梅伦 John Cameron
      杰西·劳伦斯 Jessie Lawrence Ferguson
      尤利乌斯•哈里斯 Julius Harris
      Craig Hosking Craig Hosking
      纳丹·晶 Nathan Jung
      威廉·拉斯蒂格 William Lustig

◎简  介
    经过多年的潜心研究,培顿博士(连姆·尼森 Liam Neeson 饰)终于研制出了人造皮肤,可是,这种人造皮肤有一个致命的弱点,那就是长时间的阳光照射会使它变质腐坏。一群歹徒盯上了佩顿博士的研究,为了得到这珍贵的发明,他们不惜炸毁了实验室。尽管培顿博士死里逃生,但他的全身皮肤严重毁损已成为了事实。   治疗所带来的痛苦和副作用让佩顿博士的内心充满了愤怒,怀揣着复仇的信念,他逃出了医院。利用自己所发明的人造皮肤,佩顿博士有了新的面孔,与此同时,一个新的超级英雄也就此诞生。在罪犯们的眼中,培顿博士是令人闻风丧胆的凶神恶煞,可在昔日爱人的面前,佩顿博士却感受到了久违的悲伤和痛苦。

##### MediaInfo ######
General
Unique ID : 32316162475490900439766575375332125252 (0x184FDDD2F05FBAEFBFD4A661E537AA44)
Complete name : Darkman.1990.1080p.BluRay.x265.10bit.DTS-SONYHD.mkv
Duration : 1 h 35 min
Overall bit rate : 7 590 kb/s

Video
ID : 1
Format : HEVC
Format/Info : High Efficiency Video Coding
Format profile : Main 10@L5@Main
Codec ID : V_MPEGH/ISO/HEVC
Duration : 1 h 35 min
Bit rate : 6 047 kb/s
Width : 1 920 pixels
Height : 1 032 pixels
Display aspect ratio : 1.85:1
Frame rate mode : Constant
Frame rate : 23.976 (24000/1001) FPS
Color space : YUV
Chroma subsampling : 4:2:0
Bit depth : 10 bits
Bits/(Pixel*Frame) : 0.127
Stream size : 4.04 GiB (80%)
Writing library : x265 3.5g2b25c9ba0+45:[Windows][GCC 10.2.0][64 bit] Yuuki 10bit+8bit+12bit
Encoding settings : rc=crf / crf=20.0000 / qcomp=0.60 / qpstep=4 / stats-write=0 / stats-read=0 / no-lossless / no-cu-lossless / aq-mode=1 / aq-strength=0.80 / cbqpoffs=0 / crqpoffs=0 / ipratio=1.40 / pbratio=1.30 / psy-rd=2.00 / psy-rdoq=0.00 / deblock=0:0 / ref=6 / limit-refs=1 / no-limit-modes / bframes=7 / b-adapt=2 / bframe-bias=0 / b-pyramid / b-intra / weightp / weightb / min-keyint=24 / max-keyint=240 / rc-lookahead=24 / gop-lookahead=0 / scenecut=40 / hist-scenecut=0 / radl=0 / max-cu-size=64 / min-cu-size=8 / me=3 / subme=7 / merange=48 / rdoq-level=0 / rd=4 / rdpenalty=0 / dynamic-rd=0.00 / no-rd-refine / ----- / cutree / sao / no-rect / no-amp / no-open-gop / wpp / no-pmode / no-pme / no-psnr / no-ssim / nr-intra=0 / nr-inter=0 / no-constrained-intra / no-strong-intra-smoothing / max-tu-size=32 / tu-inter-depth=1 / tu-intra-depth=1 / limit-tu=0 / qg-size=32 / qpmax=69 / qpmin=0 / ----- / cpuid=1111039 / frame-threads=4 / numa-pools=+ / log-level=2 / input-csp=1 / input-res=1920x1032 / interlace=0 / level-idc=0 / high-tier=1 / uhd-bd=0 / no-allow-non-conformance / no-repeat-headers / aud / no-hrd / info / hash=0 / no-temporal-layers / lookahead-slices=0 / no-splice / no-intra-refresh / no-ssim-rd / signhide / no-tskip / max-merge=3 / temporal-mvp / no-frame-dup / no-hme / no-analyze-src-pics / no-sao-non-deblock / selective-sao=4 / early-skip / rskip / no-fast-intra / no-tskip-fast / no-splitrd-skip / zone-count=0 / no-strict-cbr / no-rc-grain / no-const-vbv / sar=0 / overscan=0 / videoformat=5 / range=0 / colorprim=2 / transfer=2 / colormatrix=2 / chromaloc=0 / display-window=0 / cll=0,0 / min-luma=0 / max-luma=1023 / log2-max-poc-lsb=8 / vui-timing-info / vui-hrd-info / slices=1 / no-opt-qp-pps / no-opt-ref-list-length-pps / no-multi-pass-opt-rps / scenecut-bias=0.05 / hist-threshold=0.03 / no-opt-cu-delta-qp / no-aq-motion / no-hdr10 / no-hdr10-opt / no-dhdr10-opt / no-idr-recovery-sei / analysis-reuse-level=0 / analysis-save-reuse-level=0 / analysis-load-reuse-level=0 / scale-factor=0 / refine-intra=0 / refine-inter=0 / refine-mv=1 / refine-ctu-distortion=0 / no-limit-sao / ctu-info=0 / no-lowpass-dct / refine-analysis-type=0 / copy-pic=1 / max-ausize-factor=1.0 / no-dynamic-refine / no-single-sei / no-hevc-aq / no-svt / no-field / qp-adaptation-range=1.00 / scenecut-aware-qp=0conformance-window-offsets / right=0 / bottom=0 / decoder-max-rate=0 / no-vbv-live-multi-pass
Language : English
Default : Yes
Forced : No

Audio
ID : 2
Format : DTS
Format/Info : Digital Theater Systems
Codec ID : A_DTS
Duration : 1 h 35 min
Bit rate mode : Constant
Bit rate : 1 509 kb/s
Channel(s) : 6 channels
Channel layout : C L R Ls Rs LFE
Sampling rate : 48.0 kHz
Frame rate : 93.750 FPS (512 SPF)
Bit depth : 24 bits
Compression mode : Lossy
Stream size : 1.01 GiB (20%)
Language : English
Default : Yes
Forced : No

Text #1
ID : 3
ID in the original source medium : 4609 (0x1201)
Format : PGS
Muxing mode : zlib
Codec ID : S_HDMV/PGS
Codec ID/Info : Picture based subtitle format used on BDs/HD-DVDs
Duration : 1 h 29 min
Bit rate : 22.2 kb/s
Frame rate : 0.340 FPS
Count of elements : 1831
Stream size : 14.3 MiB (0%)
Title : chs
Language : Chinese
Default : Yes
Forced : No
Original source medium : Blu-ray

Text #2
ID : 4
ID in the original source medium : 4610 (0x1202)
Format : PGS
Muxing mode : zlib
Codec ID : S_HDMV/PGS
Codec ID/Info : Picture based subtitle format used on BDs/HD-DVDs
Duration : 1 h 29 min
Bit rate : 22.6 kb/s
Frame rate : 0.340 FPS
Count of elements : 1831
Stream size : 14.5 MiB (0%)
Title : cht
Language : Chinese
Default : No
Forced : No
Original source medium : Blu-ray

Text #3
ID : 5
ID in the original source medium : 4608 (0x1200)
Format : PGS
Muxing mode : zlib
Codec ID : S_HDMV/PGS
Codec ID/Info : Picture based subtitle format used on BDs/HD-DVDs
Duration : 1 h 28 min
Bit rate : 25.4 kb/s
Frame rate : 0.392 FPS
Count of elements : 2084
Stream size : 16.1 MiB (0%)
Title : eng
Language : English
Default : No
Forced : No
Original source medium : Blu-ray

Menu
00:00:00.000 : en:Chapter 01
00:09:37.243 : en:Chapter 02
00:19:37.551 : en:Chapter 03
00:27:05.332 : en:Chapter 04
00:35:26.374 : en:Chapter 05
00:43:27.688 : en:Chapter 06
00:50:20.726 : en:Chapter 07
00:57:56.514 : en:Chapter 08
01:04:28.072 : en:Chapter 09
01:11:21.986 : en:Chapter 10
01:19:30.474 : en:Chapter 11
01:29:10.386 : en:Chapter 12


部分资源为软字幕,移动端推荐播放器:MxPlayer,nPlayer,infuse ,其他播放器请自行尝试。

部分资源为软字幕,电脑端推荐播放器:PotPlayer,完美解码,KMPLAYER,其他播放器请自行尝试。



1 个附件 售价 大小 下载 时间

Darkman.1990.1080p.BluRay.x265.10bit.DTS-SONYHD[1LOU.ME].torrent 0 金币 15.75K 1330 次 1月前

#1楼
发帖时间:2024-02-23 07:53:25   |   回复数:1
feung18
武林盟主
感激摟主發佈!
1月前 #2楼
游客组