Asuka601
隐世仙人♂

[2023] [欧美] [喜剧] [WEB-4K] 飞鸭向前冲[高码版][国英多音轨/中文字幕].Migration.2023.2160p.HQ.WEB-DL.H265.DDP5.1.2Audio-DreamHD

-->

完整标题:飞鸭向前冲[高码版][国英多音轨/中文字幕].Migration.2023.2160p.HQ.WEB-DL.H265.DDP5.1.2Audio-DreamHD 13.91GB



◎标  题 飞鸭向前冲
◎译  名 鸭仔也移民(港)
◎片  名 Migration
◎年  代 2023
◎产  地 美国 / 法国 / 加拿大
◎类  别 喜剧 / 动作 / 动画 / 奇幻 / 冒险
◎语  言 英语
◎上映日期 2023-12-08(中国大陆) / 2023-12-22(美国)
◎IMDb评分 6.8/10 (6579人评价)
◎IMDb链接 https://www.imdb.com/title/tt6495056/
◎豆瓣评分 7.6/10 (3472人评价)
◎豆瓣链接 https://movie.douban.com/subject/36086942/
◎片  长 82分钟
◎导  演 本杰明·雷内 Benjamin Renner
      盖洛·霍姆西 Guylo Homsy
◎编  剧 本杰明·雷内 Benjamin Renner
      麦克·怀特 Mike White
◎演  员 库梅尔·南贾尼 Kumail Nanjiani
      伊丽莎白·班克斯 Elizabeth Banks
      科甘-迈克尔·凯 Keegan-Michael Key
      奥卡菲娜 Awkwafina
      丹尼·德维托 Danny DeVito
      卡罗尔·凯恩 Carol Kane
      大卫·米切尔 David Mitchell
      吉米·唐纳森 Jimmy Donaldson
      杰森·马林 Jason Marin
      特雷西·加扎尔 Tresi Gazal
      卡斯帕·詹宁斯 Caspar Jennings

◎简  介
    飞鸭马拉德一家向南迁徙前往热带的牙买加,却意外闯入疯狂大都市纽约?在紧张刺激的飞行之旅中,他们将如何化险为夷?

点击图片可查看大图

软字幕无法在截图上展现,HDR版本/杜比视界版本截图会出现颜色异常,请使用支持的设备播放!

##### MediaInfo ######
General
Unique ID : 25551415344717313678007868278103561330 (0x1339060A3758192B0950BC1A32D35472)
Complete name : Migration.2023.2160p.HQ.WEB-DL.H265.DDP5.1.2Audio-DreamHD.mkv
Duration : 1 h 31 min
Overall bit rate : 21.7 Mb/s

Video
ID : 1
Format : HEVC
Format/Info : High Efficiency Video Coding
Format profile : Main [email protected]@Main
Codec ID : V_MPEGH/ISO/HEVC
Duration : 1 h 31 min
Bit rate : 19.8 Mb/s
Width : 3 840 pixels
Height : 1 608 pixels
Display aspect ratio : 2.40:1
Frame rate mode : Constant
Frame rate : 23.976 (24000/1001) FPS
Color space : YUV
Chroma subsampling : 4:2:0
Bit depth : 10 bits
Bits/(Pixel*Frame) : 0.134
Stream size : 12.7 GiB (91%)
Default : Yes
Forced : No
Color range : Limited
Color primaries : BT.709
Transfer characteristics : BT.709
Matrix coefficients : BT.709

Audio #1
ID : 2
Format : E-AC-3
Format/Info : Enhanced AC-3
Commercial name : Dolby Digital Plus
Codec ID : A_EAC3
Duration : 1 h 31 min
Bit rate mode : Constant
Bit rate : 448 kb/s
Channel(s) : 6 channels
Channel layout : L R C LFE Ls Rs
Sampling rate : 48.0 kHz
Frame rate : 31.250 FPS (1536 SPF)
Compression mode : Lossy
Stream size : 294 MiB (2%)
Title : [DDP5.1]
Language : English
Service kind : Complete Main
Default : Yes
Forced : No

Audio #2
ID : 3
Format : E-AC-3
Format/Info : Enhanced AC-3
Commercial name : Dolby Digital Plus
Codec ID : A_EAC3
Duration : 1 h 31 min
Bit rate mode : Constant
Bit rate : 448 kb/s
Channel(s) : 6 channels
Channel layout : L R C LFE Ls Rs
Sampling rate : 48.0 kHz
Frame rate : 31.250 FPS (1536 SPF)
Compression mode : Lossy
Stream size : 294 MiB (2%)
Title : Mandarin [DDP5.1]
Language : Chinese
Service kind : Complete Main
Default : No
Forced : No

Audio #3
ID : 4
Format : E-AC-3
Format/Info : Enhanced AC-3
Commercial name : Dolby Digital Plus
Codec ID : A_EAC3
Duration : 1 h 31 min
Bit rate mode : Constant
Bit rate : 256 kb/s
Channel(s) : 2 channels
Channel layout : L R
Sampling rate : 48.0 kHz
Frame rate : 31.250 FPS (1536 SPF)
Bit depth : 32 bits
Compression mode : Lossy
Delay relative to video : 24 ms
Stream size : 168 MiB (1%)
Title : [DDP2.0]
Language : English
Service kind : Complete Main
Default : No
Forced : No

Audio #4
ID : 5
Format : E-AC-3
Format/Info : Enhanced AC-3
Commercial name : Dolby Digital Plus
Codec ID : A_EAC3
Duration : 1 h 31 min
Bit rate mode : Constant
Bit rate : 256 kb/s
Channel(s) : 2 channels
Channel layout : L R
Sampling rate : 48.0 kHz
Frame rate : 31.250 FPS (1536 SPF)
Bit depth : 32 bits
Compression mode : Lossy
Delay relative to video : 24 ms
Stream size : 168 MiB (1%)
Title : Mandarin [DDP2.0]
Language : Chinese
Service kind : Complete Main
Default : No
Forced : No

Audio #5
ID : 6
Format : AAC LC
Format/Info : Advanced Audio Codec Low Complexity
Codec ID : A_AAC-2
Duration : 1 h 31 min
Bit rate : 256 kb/s
Channel(s) : 2 channels
Channel layout : L R
Sampling rate : 44.1 kHz
Frame rate : 43.066 FPS (1024 SPF)
Compression mode : Lossy
Stream size : 168 MiB (1%)
Title : [AAC2.0]
Language : English
Default : No
Forced : No

Audio #6
ID : 7
Format : AAC LC
Format/Info : Advanced Audio Codec Low Complexity
Codec ID : A_AAC-2
Duration : 1 h 31 min
Bit rate : 256 kb/s
Channel(s) : 2 channels
Channel layout : L R
Sampling rate : 44.1 kHz
Frame rate : 43.066 FPS (1024 SPF)
Compression mode : Lossy
Stream size : 168 MiB (1%)
Title : Mandarin [AAC2.0]
Language : Chinese
Default : No
Forced : No


部分资源为软字幕,移动端推荐播放器:MxPlayer,nPlayer,infuse ,其他播放器请自行尝试。

部分资源为软字幕,电脑端推荐播放器:PotPlayer,完美解码,KMPLAYER,其他播放器请自行尝试。


#1楼
发帖时间:2024-02-22 20:54:55   |   回复数:1
popeye69
一代宗师
感谢楼主分享!
1月前 #2楼
游客组