Asuka601
隐世仙人♂

[更 早] [其它] [剧情] [WEB-4K] 偷窥狂[HDR/杜比视界双版本][简繁英字幕].Peeping.Tom.1960.2160p.UHD.BluRay.x265.10bit.DV.FLAC.2.0

-->

完整标题:偷窥狂[HDR/杜比视界双版本][简繁英字幕].Peeping.Tom.1960.2160p.UHD.BluRay.x265.10bit.DV.FLAC.2.0-SONYHD 20.77GB



◎标  题 偷窥狂
◎译  名 魔光血影(港) / Face of Fear / 偷窥者
◎片  名 Peeping Tom
◎年  代 1960
◎产  地 英国
◎类  别 剧情 / 惊悚 / 犯罪
◎语  言 英语
◎上映日期 1960-04-07
◎IMDb评分 7.6/10 (37093人评价)
◎IMDb链接 https://www.imdb.com/title/tt0054167/
◎豆瓣评分 7.9/10 (8683人评价)
◎豆瓣链接 https://movie.douban.com/subject/1299665/
◎片  长 101分钟
◎导  演 迈克尔·鲍威尔 Michael Powell
◎编  剧 里奥·马克思 Leo Marks
◎演  员 卡尔海因茨·伯姆 Karlheinz Böhm
      莫伊拉·希勒 Moira Shearer
      安娜·玛西 Anna Massey
      玛克辛·奥德丽 Maxine Audley
      布伦达·布鲁斯 Brenda Bruce

◎简  介
    马克(卡尔亨兹·伯恩 Karlheinz Böhm 饰)是一名摄影师,热爱摄影的他随身都携带着他父亲留给他的一台手持摄影机。一起连环杀人案件在城中引起了恐慌,被害者均为女性,死去时,她们的脸上布满了极为恐惧的表情,而仪表堂堂的马克,就是犯下这些可怕罪行的真凶。原来,马克的父亲是一位研究儿童恐惧的心理学家,作为他的实验对象,从小马克就被各种各样突如其来的惊吓所包围,这样长久的恐惧和压抑导致了他扭曲的性格,也成为了一切惨剧的导火索。   一次偶然,马克被邻居海伦(安娜·玛西 Anna Massey 饰)的美貌所吸引,正当他准备对海伦下手时却犹豫了。海伦的天真美好暂时治愈了马克的童年创伤,但时常肆虐的疯狂却又让他陷入了与天性的自我纠葛中。接连犯案的马克引起了警方的注意,而在被捕之际,绝望的马克选择了自我毁灭。

##### MediaInfo ######
General
Unique ID : 161671317638871686037459596812743608385 (0x79A0C35FB1A8FD37D4ACF8AFB4B00841)
Complete name : Peeping.Tom.1960.2160p.UHD.BluRay.x265.10bit.DV.FLAC.2.0-SONYHD.mkv
Duration : 1 h 42 min
Overall bit rate mode : Variable
Overall bit rate : 29.1 Mb/s

Video
ID : 1
Format : HEVC
Format/Info : High Efficiency Video Coding
Format profile : Main [email protected]@High
HDR format : Dolby Vision, Version 1.0, dvhe.08.06, BL+RPU, HDR10 compatible / SMPTE ST 2086, HDR10 compatible
Codec ID : V_MPEGH/ISO/HEVC
Duration : 1 h 42 min
Bit rate : 28.5 Mb/s
Width : 3 584 pixels
Height : 2 160 pixels
Display aspect ratio : 5:3
Frame rate mode : Constant
Frame rate : 24.000 FPS
Color space : YUV
Chroma subsampling : 4:2:0 (Type 2)
Bit depth : 10 bits
Bits/(Pixel*Frame) : 0.153
Stream size : 20.3 GiB (98%)
Writing library : x265 3.5g2b25c9ba0+45:[Windows][MSVC 1926][64 bit] Yuuki 10bit+8bit+12bit
Encoding settings : rc=crf / crf=22.5800 / qcomp=0.60 / qpstep=4 / stats-write=0 / stats-read=0 / vbv-maxrate=160000 / vbv-bufsize=160000 / vbv-init=0.9 / min-vbv-fullness=50.0 / max-vbv-fullness=80.0 / crf-max=0.0 / crf-min=0.0 / no-lossless / no-cu-lossless / aq-mode=3 / aq-strength=0.70 / cbqpoffs=0 / crqpoffs=0 / ipratio=1.40 / pbratio=1.30 / psy-rd=2.00 / psy-rdoq=2.00 / deblock=-3:-3 / ref=5 / limit-refs=1 / no-limit-modes / bframes=11 / b-adapt=2 / bframe-bias=0 / b-pyramid / b-intra / weightp / weightb / min-keyint=1 / max-keyint=240 / rc-lookahead=72 / gop-lookahead=0 / scenecut=40 / hist-scenecut=0 / radl=0 / max-cu-size=64 / min-cu-size=8 / me=3 / subme=6 / merange=48 / rdoq-level=2 / rd=4 / rdpenalty=0 / dynamic-rd=0.00 / no-rd-refine / ----- / no-cutree / no-sao / no-rect / no-amp / no-open-gop / wpp / no-pmode / no-pme / no-psnr / no-ssim / nr-intra=0 / nr-inter=0 / no-constrained-intra / no-strong-intra-smoothing / max-tu-size=32 / tu-inter-depth=4 / tu-intra-depth=4 / limit-tu=0 / qg-size=32 / qpmax=69 / qpmin=0 / ----- / cpuid=1111039 / frame-threads=6 / numa-pools=+ / log-level=2 / input-csp=1 / input-res=3584x2160 / interlace=0 / level-idc=51 / high-tier=1 / uhd-bd=0 / no-allow-non-conformance / repeat-headers / aud / hrd / info / hash=0 / no-temporal-layers / lookahead-slices=0 / no-splice / no-intra-refresh / no-ssim-rd / signhide / no-tskip / max-merge=5 / temporal-mvp / no-frame-dup / no-hme / analyze-src-pics / no-sao-non-deblock / selective-sao=0 / early-skip / rskip / no-fast-intra / no-tskip-fast / no-splitrd-skip / zone-count=0 / no-strict-cbr / no-rc-grain / no-const-vbv / sar=0 / overscan=0 / videoformat=5 / range=0 / colorprim=9 / transfer=16 / colormatrix=9 / chromaloc=1 / chromaloc-top=2 / chromaloc-bottom=2 / display-window=0 / master-display=G(13250,34500)B(7500,3000)R(34000,16000)WP(15635,16450)L(10000000,1) / cll=1000,400 / min-luma=0 / max-luma=1023 / log2-max-poc-lsb=8 / vui-timing-info / vui-hrd-info / slices=1 / no-opt-qp-pps / no-opt-ref-list-length-pps / no-multi-pass-opt-rps / scenecut-bias=0.05 / hist-threshold=0.03 / no-opt-cu-delta-qp / no-aq-motion / hdr10 / hdr10-opt / no-dhdr10-opt / no-idr-recovery-sei / analysis-reuse-level=0 / analysis-save-reuse-level=0 / analysis-load-reuse-level=0 / scale-factor=0 / refine-intra=0 / refine-inter=0 / refine-mv=1 / refine-ctu-distortion=0 / no-limit-sao / ctu-info=0 / no-lowpass-dct / refine-analysis-type=0 / copy-pic=1 / max-ausize-factor=1.0 / no-dynamic-refine / no-single-sei / no-hevc-aq / no-svt / no-field / qp-adaptation-range=1.00 / scenecut-aware-qp=0conformance-window-offsets / right=0 / bottom=0 / decoder-max-rate=0 / no-vbv-live-multi-pass
Default : Yes
Forced : No
Color range : Limited
Color primaries : BT.2020
Transfer characteristics : PQ
Matrix coefficients : BT.2020 non-constant
Mastering display color primaries : Display P3
Mastering display luminance : min: 0.0001 cd/m2, max: 1000 cd/m2
Maximum Content Light Level : 1000 cd/m2
Maximum Frame-Average Light Level : 400 cd/m2

Audio
ID : 2
Format : FLAC
Format/Info : Free Lossless Audio Codec
Codec ID : A_FLAC
Duration : 1 h 42 min
Bit rate mode : Variable
Bit rate : 616 kb/s
Channel(s) : 2 channels
Channel layout : L R
Sampling rate : 48.0 kHz
Frame rate : 11.719 FPS (4096 SPF)
Bit depth : 24 bits
Compression mode : Lossless
Stream size : 450 MiB (2%)
Title : English
Writing library : libFLAC 1.2.1 (UTC 2007-09-17)
Language : English
Default : Yes
Forced : No

Text #1
ID : 3
ID in the original source medium : 4776 (0x12A8)
Format : PGS
Muxing mode : zlib
Codec ID : S_HDMV/PGS
Codec ID/Info : Picture based subtitle format used on BDs/HD-DVDs
Duration : 1 h 41 min
Bit rate : 38.3 kb/s
Frame rate : 0.357 FPS
Count of elements : 2177
Stream size : 27.8 MiB (0%)
Title : chs&eng
Language : Chinese
Default : Yes
Forced : No
Original source medium : Blu-ray

Text #2
ID : 4
ID in the original source medium : 4777 (0x12A9)
Format : PGS
Muxing mode : zlib
Codec ID : S_HDMV/PGS
Codec ID/Info : Picture based subtitle format used on BDs/HD-DVDs
Duration : 1 h 41 min
Bit rate : 38.5 kb/s
Frame rate : 0.357 FPS
Count of elements : 2177
Stream size : 27.9 MiB (0%)
Title : cht&eng
Language : Chinese
Default : No
Forced : No
Original source medium : Blu-ray

Text #3
ID : 5
ID in the original source medium : 4778 (0x12AA)
Format : PGS
Muxing mode : zlib
Codec ID : S_HDMV/PGS
Codec ID/Info : Picture based subtitle format used on BDs/HD-DVDs
Duration : 1 h 41 min
Bit rate : 20.5 kb/s
Frame rate : 0.357 FPS
Count of elements : 2177
Stream size : 14.9 MiB (0%)
Title : chs
Language : Chinese
Default : No
Forced : No
Original source medium : Blu-ray

Text #4
ID : 6
ID in the original source medium : 4779 (0x12AB)
Format : PGS
Muxing mode : zlib
Codec ID : S_HDMV/PGS
Codec ID/Info : Picture based subtitle format used on BDs/HD-DVDs
Duration : 1 h 41 min
Bit rate : 20.6 kb/s
Frame rate : 0.357 FPS
Count of elements : 2177
Stream size : 15.0 MiB (0%)
Title : cht
Language : Chinese
Default : No
Forced : No
Original source medium : Blu-ray

Text #5
ID : 7
ID in the original source medium : 4768 (0x12A0)
Format : PGS
Muxing mode : zlib
Codec ID : S_HDMV/PGS
Codec ID/Info : Picture based subtitle format used on BDs/HD-DVDs
Duration : 1 h 41 min
Bit rate : 32.2 kb/s
Frame rate : 0.418 FPS
Count of elements : 2554
Stream size : 23.5 MiB (0%)
Title : eng
Language : English
Default : No
Forced : No
Original source medium : Blu-ray

Menu
00:00:00.000 : en:Chapter 01
00:09:35.165 : en:Chapter 02
00:16:46.707 : en:Chapter 03
00:28:17.500 : en:Chapter 04
00:36:12.291 : en:Chapter 05
00:48:25.583 : en:Chapter 06
00:56:40.000 : en:Chapter 07
01:07:16.583 : en:Chapter 08
01:21:16.625 : en:Chapter 09
01:27:20.041 : en:Chapter 10
01:35:15.041 : en:Chapter 11
01:38:49.625 : en:Chapter 12


部分资源为软字幕,移动端推荐播放器:MxPlayer,nPlayer,infuse ,其他播放器请自行尝试。

部分资源为软字幕,电脑端推荐播放器:PotPlayer,完美解码,KMPLAYER,其他播放器请自行尝试。



1 个附件 售价 大小 下载 时间

Peeping.Tom.1960.2160p.UHD.BluRay.x265.10bit.DV.FLAC.2.0-SONYHD[1LOU.ME].torrent 0 金币 55.03K 1449 次 1月前

#1楼
发帖时间:2024-02-22 20:48:36   |   回复数:0
游客组