Asuka601
隐世仙人♂

[2021] [其它] [惊悚] [BD-1080P] 胡达的沙龙[简繁英字幕].Hudas.Salon.2021.1080p.BluRay.x264.DTS-SONYHD 9.16GB

-->

完整标题:胡达的沙龙[简繁英字幕].Hudas.Salon.2021.1080p.BluRay.x264.DTS-SONYHD 9.16GB



◎标  题 胡达的沙龙
◎片  名 Huda's Salon
◎年  代 2021
◎产  地 巴勒斯坦
◎类  别 惊悚
◎语  言 阿拉伯语
◎上映日期 2021-09-09(多伦多电影节) / 2022-03-04(美国)
◎IMDb评分 6.2/10 (1100人评价)
◎IMDb链接 https://www.imdb.com/title/tt11897340/
◎豆瓣评分 6.5/10 (182人评价)
◎豆瓣链接 https://movie.douban.com/subject/34970334/
◎片  长 91分钟
◎导  演 汉尼·阿布-阿萨德 Hany Abu-Assad
◎编  剧 汉尼·阿布-阿萨德 Hany Abu-Assad
◎演  员 阿里·苏莱曼 Ali Suliman
      麦莎·阿德哈迪 Maisa Abd Elhadi
      萨米尔·比沙特 Samer Bishart

◎简  介
    [远山恋人]、[天堂此时]导演汉尼·阿布-阿萨德将自编自导阿拉伯语新片[胡达的沙龙](Huda’s Salon,暂译)。影片卡司包括阿里·苏莱曼([必是天堂])、麦莎·阿德哈迪([特拉维夫在燃烧])等。影片讲述一名女子前往一家美发沙龙,却遭到了店主的敲诈。该片将在巴勒斯坦开拍。

##### MediaInfo ######
General
Unique ID : 314780494595989639750276716418390257370 (0xECD0849E9B47BA5C9BA4710E9B036EDA)
Complete name : Hudas.Salon.2021.1080p.BluRay.x264.DTS-SONYHD.mkv
Duration : 1 h 31 min
Overall bit rate : 14.4 Mb/s

Video
ID : 1
Format : AVC
Format/Info : Advanced Video Codec
Format profile : [email protected]
Format settings : CABAC / 4 Ref Frames
Format settings, CABAC : Yes
Format settings, Reference frames : 4 frames
Codec ID : V_MPEG4/ISO/AVC
Duration : 1 h 31 min
Bit rate : 12.9 Mb/s
Width : 1 920 pixels
Height : 1 000 pixels
Display aspect ratio : 1.920
Frame rate mode : Constant
Frame rate : 23.976 (24000/1001) FPS
Color space : YUV
Chroma subsampling : 4:2:0
Bit depth : 8 bits
Scan type : Progressive
Bits/(Pixel*Frame) : 0.279
Stream size : 8.18 GiB (89%)
Title : Hudas.Salon.2021.1080p.BluRay.AVC.DTS-HD.MA.5.1-DIY@Audies
Writing library : x264 core 161 r3018+53 18a1d6c t_mod_New [(8 & 10)-bit@all X86_64]
Encoding settings : cabac=1 / ref=3 / deblock=1:-3:-3 / analyse=0x3:0x133 / me=umh / subme=11 / psy=1 / fade_compensate=0.00 / psy_rd=1.00:0.00 / mixed_ref=1 / me_range=48 / chroma_me=1 / trellis=2 / 8x8dct=1 / cqm=0 / deadzone=21,11 / fast_pskip=0 / chroma_qp_offset=-3 / threads=24 / lookahead_threads=6 / sliced_threads=0 / nr=0 / decimate=0 / interlaced=0 / bluray_compat=0 / constrained_intra=0 / fgo=0 / bframes=11 / b_pyramid=2 / b_adapt=2 / b_bias=0 / direct=3 / weightb=1 / open_gop=0 / weightp=2 / keyint=240 / keyint_min=1 / scenecut=40 / intra_refresh=0 / rc_lookahead=72 / rc=crf / mbtree=0 / crf=17.8000 / qcomp=0.70 / qpmin=0:0:0 / qpmax=69:69:69 / qpstep=4 / vbv_maxrate=62500 / vbv_bufsize=78125 / crf_max=0.0 / nal_hrd=none / filler=0 / ip_ratio=1.40 / pb_ratio=1.30 / aq=3:0.90 / aq-sensitivity=10.00 / aq-factor=1.00:1.00:1.00 / aq2=0 / aq3=0
Language : Arabic
Default : Yes
Forced : No

Audio
ID : 2
ID in the original source medium : 4352 (0x1100)
Format : DTS
Format/Info : Digital Theater Systems
Codec ID : A_DTS
Duration : 1 h 30 min
Bit rate mode : Constant
Bit rate : 1 509 kb/s
Channel(s) : 6 channels
Channel layout : C L R Ls Rs LFE
Sampling rate : 48.0 kHz
Frame rate : 93.750 FPS (512 SPF)
Bit depth : 24 bits
Compression mode : Lossy
Stream size : 982 MiB (10%)
Title : DTS.5.1
Language : Arabic
Default : Yes
Forced : No
Original source medium : Blu-ray

Text #1
ID : 3
ID in the original source medium : 4609 (0x1201)
Format : PGS
Muxing mode : zlib
Codec ID : S_HDMV/PGS
Codec ID/Info : Picture based subtitle format used on BDs/HD-DVDs
Duration : 1 h 26 min
Bit rate : 22.2 kb/s
Frame rate : 0.357 FPS
Count of elements : 1857
Stream size : 13.8 MiB (0%)
Title : chs
Language : Chinese
Default : Yes
Forced : No
Original source medium : Blu-ray

Text #2
ID : 4
ID in the original source medium : 4610 (0x1202)
Format : PGS
Muxing mode : zlib
Codec ID : S_HDMV/PGS
Codec ID/Info : Picture based subtitle format used on BDs/HD-DVDs
Duration : 1 h 26 min
Bit rate : 22.3 kb/s
Frame rate : 0.357 FPS
Count of elements : 1857
Stream size : 13.8 MiB (0%)
Title : cht
Language : Chinese
Default : No
Forced : No
Original source medium : Blu-ray

Text #3
ID : 5
ID in the original source medium : 4608 (0x1200)
Format : PGS
Muxing mode : zlib
Codec ID : S_HDMV/PGS
Codec ID/Info : Picture based subtitle format used on BDs/HD-DVDs
Duration : 1 h 24 min
Bit rate : 19.2 kb/s
Frame rate : 0.293 FPS
Count of elements : 1488
Stream size : 11.6 MiB (0%)
Title : eng
Language : English
Default : No
Forced : No
Original source medium : Blu-ray

Menu
00:00:00.000 : en:Chapter 01
00:10:26.125 : en:Chapter 02
00:22:32.642 : en:Chapter 03
00:35:25.414 : en:Chapter 04
00:55:06.303 : en:Chapter 05
01:07:49.356 : en:Chapter 06
01:17:32.272 : en:Chapter 07
01:27:07.096 : en:Chapter 08


部分资源为软字幕,移动端推荐播放器:MxPlayer,nPlayer,infuse ,其他播放器请自行尝试。

部分资源为软字幕,电脑端推荐播放器:PotPlayer,完美解码,KMPLAYER,其他播放器请自行尝试。



1 个附件 售价 大小 下载 时间

Hudas.Salon.2021.1080p.BluRay.x264.DTS-SONYHD[1LOU.ME].torrent 0 金币 25.97K 903 次 1月前

#1楼
发帖时间:2024-02-22 20:47:00   |   回复数:0
游客组