Asuka601
隐世仙人♂

[2010] [韩国] [剧情] [WEB-4K] 孤胆特工[HDR/杜比视界双版本][国韩多音轨/中文字幕].2010.2160p.UHD.BluRay.x265.10bit.DV.TrueHD.7.1.Atm

-->

完整标题:孤胆特工[HDR/杜比视界双版本][国韩多音轨/中文字幕].2010.2160p.UHD.BluRay.x265.10bit.DV.TrueHD.7.1.Atmos.2Audio-SONYHD 18.48GB



◎标  题 孤胆特工
◎译  名 杀手代父(港) / 大叔(台) / 叔叔 / 这个大叔不太冷(豆友译名) / The Man From Nowhere
◎片  名 아저씨
◎年  代 2010
◎产  地 韩国
◎类  别 剧情 / 动作 / 惊悚 / 犯罪
◎语  言 韩语
◎上映日期 2011-09-16(中国大陆) / 2010-08-04(韩国)
◎IMDb评分 7.7/10 (73655人评价)
◎IMDb链接 https://www.imdb.com/title/tt1527788/
◎豆瓣评分 8.2/10 (206954人评价)
◎豆瓣链接 https://movie.douban.com/subject/4249355/
◎片  长 119分钟(韩国) / 112分钟(中国大陆)
◎导  演 李桢凡 Jeong-beom Lee
◎编  剧 李桢凡 Jeong-beom Lee
◎演  员 元斌 Bin Won
      金赛纶 Sae-ron Kim
      坦纳永·王特拉库 Thanayong Wongtrakul
      金太勋 Tae-hoon Kim
      金熙元 Hae-won Kim
      宋永彰 Young-chang Song
      李宗弼 Jong-pil Lee
      金成伍 Seong-oh Kim
      金孝书 Hyo-seo Kim
      白秀莲 Su-ryun Baek
      郭度沅 Do-Won Kwak
      洪晓熙 Se-hee Hong
      柳义贤 Yoo Ui Hyun
      朴晟泽 Song-tech Park
      徐东锡 Seo Dong-seok
      郑敏圣 Min-sung Jung
      黄民浩 Min-ho Hwang
      金英雅 Kim Young Ah
      柳妍美 Mi-ryu Yeon
      魏智雄 Ji-woong Wi
      张玺萌
      郑道元 Do-won Jung
      韩根燮 Han Geun-sup
      赵在允 Jae-yun Jo
      李才元 Jea-woo Lee
      李道谦 Lee Do-gyeom
      李景宪 Gyeong-Heon Lee

◎简  介
    住在小女孩小米(金赛纶 饰)隔壁的当铺大叔(元斌 饰)除过生意之外和邻居们从不来往,颓废的造型以及沉默的性格让人们对于他的身份有诸多怀疑。天真的小米从不理会这些传言,时常造访这位神秘邻居竟然使他俩慢慢的成为朋友。小米的妈妈牵连到黑帮的毒品抢夺之中,最终使自己和小米陷入危险之中。目睹小米和妈妈被人绑架的当铺大叔为了救出小米和妈妈,开始和黑道展开斗争。此时,警方也在着手调查这起案件,当铺大叔元泰锡的真正身份慢慢浮出水面。被摘除所有值钱器官的小米妈妈的尸体在一辆汽车的后备箱里被发现,但是,和她一起失踪的小米却依然下落不明……   《旅行者》中扮演“真希”的小罗莉金赛纶和换上颓废造型的“花样美男”元斌一起演绎的韩版《这个杀手不太冷》,成为2010年韩国最卖座的电影。

点击图片可查看大图

软字幕无法在截图上展现,HDR版本/杜比视界版本截图会出现颜色异常,请使用支持的设备播放!

##### MediaInfo ######
General
Unique ID : 268008042908774909716531492912251475767 (0xC9A078B55E528E07C8281806AB331737)
Complete name : The.Man.From.Nowhere.2010.2160p.UHD.BluRay.x265.10bit.DV.TrueHD.7.1.Atmos.2Audio-SONYHD.mkv
Duration : 1 h 59 min
Overall bit rate mode : Variable
Overall bit rate : 22.1 Mb/s

Video
ID : 1
Format : HEVC
Format/Info : High Efficiency Video Coding
Format profile : Main [email protected]@High
HDR format : Dolby Vision, Version 1.0, dvhe.08.06, BL+RPU, HDR10 compatible / SMPTE ST 2086, HDR10 compatible
Codec ID : V_MPEGH/ISO/HEVC
Duration : 1 h 59 min
Bit rate : 15.9 Mb/s
Width : 3 840 pixels
Height : 1 624 pixels
Display aspect ratio : 2.35:1
Frame rate mode : Constant
Frame rate : 23.976 (24000/1001) FPS
Color space : YUV
Chroma subsampling : 4:2:0
Bit depth : 10 bits
Bits/(Pixel*Frame) : 0.106
Stream size : 13.3 GiB (72%)
Writing library : x265 3.5g2b25c9ba0+45:[Windows][MSVC 1926][64 bit] Yuuki 10bit+8bit+12bit
Encoding settings : rc=crf / crf=19.0000 / qcomp=0.60 / qpstep=4 / stats-write=0 / stats-read=0 / vbv-maxrate=160000 / vbv-bufsize=160000 / vbv-init=0.9 / min-vbv-fullness=50.0 / max-vbv-fullness=80.0 / crf-max=0.0 / crf-min=0.0 / no-lossless / no-cu-lossless / aq-mode=3 / aq-strength=0.70 / cbqpoffs=0 / crqpoffs=0 / ipratio=1.40 / pbratio=1.30 / psy-rd=2.00 / psy-rdoq=2.00 / deblock=-3:-3 / ref=6 / limit-refs=1 / no-limit-modes / bframes=11 / b-adapt=2 / bframe-bias=0 / b-pyramid / b-intra / weightp / weightb / min-keyint=1 / max-keyint=240 / rc-lookahead=72 / gop-lookahead=0 / scenecut=40 / hist-scenecut=0 / radl=0 / max-cu-size=64 / min-cu-size=8 / me=3 / subme=6 / merange=48 / rdoq-level=2 / rd=4 / rdpenalty=0 / dynamic-rd=0.00 / no-rd-refine / ----- / no-cutree / no-sao / no-rect / no-amp / no-open-gop / wpp / no-pmode / no-pme / no-psnr / no-ssim / nr-intra=0 / nr-inter=0 / no-constrained-intra / no-strong-intra-smoothing / max-tu-size=32 / tu-inter-depth=4 / tu-intra-depth=4 / limit-tu=0 / qg-size=32 / qpmax=69 / qpmin=0 / ----- / cpuid=1111039 / frame-threads=5 / numa-pools=+ / log-level=2 / input-csp=1 / input-res=3840x1624 / interlace=0 / level-idc=51 / high-tier=1 / uhd-bd=0 / no-allow-non-conformance / repeat-headers / aud / hrd / info / hash=0 / no-temporal-layers / lookahead-slices=0 / no-splice / no-intra-refresh / no-ssim-rd / signhide / no-tskip / max-merge=5 / temporal-mvp / no-frame-dup / no-hme / analyze-src-pics / no-sao-non-deblock / selective-sao=0 / early-skip / rskip / no-fast-intra / no-tskip-fast / no-splitrd-skip / zone-count=0 / no-strict-cbr / no-rc-grain / no-const-vbv / sar=0 / overscan=0 / videoformat=5 / range=0 / colorprim=9 / transfer=16 / colormatrix=9 / chromaloc=0 / display-window=0 / master-display=G(13250,34500)B(7500,3000)R(34000,16000)WP(15635,16450)L(10000000,1) / cll=426,200 / min-luma=0 / max-luma=1023 / log2-max-poc-lsb=8 / vui-timing-info / vui-hrd-info / slices=1 / no-opt-qp-pps / no-opt-ref-list-length-pps / no-multi-pass-opt-rps / scenecut-bias=0.05 / hist-threshold=0.03 / no-opt-cu-delta-qp / no-aq-motion / hdr10 / hdr10-opt / no-dhdr10-opt / no-idr-recovery-sei / analysis-reuse-level=0 / analysis-save-reuse-level=0 / analysis-load-reuse-level=0 / scale-factor=0 / refine-intra=0 / refine-inter=0 / refine-mv=1 / refine-ctu-distortion=0 / no-limit-sao / ctu-info=0 / no-lowpass-dct / refine-analysis-type=0 / copy-pic=1 / max-ausize-factor=1.0 / no-dynamic-refine / no-single-sei / no-hevc-aq / no-svt / no-field / qp-adaptation-range=1.00 / scenecut-aware-qp=0conformance-window-offsets / right=0 / bottom=0 / decoder-max-rate=0 / no-vbv-live-multi-pass
Default : Yes
Forced : No
Color range : Limited
Color primaries : BT.2020
Transfer characteristics : PQ
Matrix coefficients : BT.2020 non-constant
Mastering display color primaries : Display P3
Mastering display luminance : min: 0.0001 cd/m2, max: 1000 cd/m2
Maximum Content Light Level : 426 cd/m2
Maximum Frame-Average Light Level : 200 cd/m2

Audio #1
ID : 2
ID in the original source medium : 4352 (0x1100)
Format : MLP FBA 16-ch
Format/Info : Meridian Lossless Packing FBA with 16-channel presentation
Commercial name : Dolby TrueHD with Dolby Atmos
Codec ID : A_TRUEHD
Duration : 1 h 59 min
Bit rate mode : Variable
Bit rate : 4 091 kb/s
Maximum bit rate : 6 834 kb/s
Channel(s) : 8 channels
Channel layout : L R C LFE Ls Rs Lb Rb
Sampling rate : 48.0 kHz
Frame rate : 1 200.000 FPS (40 SPF)
Compression mode : Lossless
Stream size : 3.42 GiB (18%)
Language : Korean
Default : Yes
Forced : No
Original source medium : Blu-ray
Number of dynamic objects : 11
Bed channel count : 1 channel
Bed channel configuration : LFE

Audio #2
ID : 3
ID in the original source medium : 4354 (0x1102)
Format : DTS XLL
Format/Info : Digital Theater Systems
Commercial name : DTS-HD Master Audio
Codec ID : A_DTS
Duration : 1 h 59 min
Bit rate mode : Variable
Bit rate : 2 030 kb/s
Channel(s) : 6 channels
Channel layout : C L R Ls Rs LFE
Sampling rate : 48.0 kHz
Frame rate : 93.750 FPS (512 SPF)
Bit depth : 16 bits
Compression mode : Lossless
Delay relative to video : 21 ms
Stream size : 1.70 GiB (9%)
Title : Mandarin
Language : Chinese
Default : Yes
Forced : No
Original source medium : Blu-ray

Text #1
ID : 4
ID in the original source medium : 4769 (0x12A1)
Format : PGS
Muxing mode : zlib
Codec ID : S_HDMV/PGS
Codec ID/Info : Picture based subtitle format used on BDs/HD-DVDs
Duration : 1 h 54 min
Bit rate : 13.4 kb/s
Frame rate : 0.256 FPS
Count of elements : 1754
Stream size : 11.0 MiB (0%)
Title : chs
Language : Chinese
Default : Yes
Forced : No
Original source medium : Blu-ray

Text #2
ID : 5
ID in the original source medium : 4770 (0x12A2)
Format : PGS
Muxing mode : zlib
Codec ID : S_HDMV/PGS
Codec ID/Info : Picture based subtitle format used on BDs/HD-DVDs
Duration : 1 h 54 min
Bit rate : 13.6 kb/s
Frame rate : 0.256 FPS
Count of elements : 1754
Stream size : 11.1 MiB (0%)
Title : cht
Language : Chinese
Default : No
Forced : No
Original source medium : Blu-ray

Menu
00:00:00.000 : en:Chapter 01
00:05:36.377 : en:Chapter 02
00:11:12.630 : en:Chapter 03
00:14:56.812 : en:Chapter 04
00:19:49.396 : en:Chapter 05
00:23:59.062 : en:Chapter 06
00:29:33.897 : en:Chapter 07
00:33:36.305 : en:Chapter 08
00:40:34.515 : en:Chapter 09
00:44:32.002 : en:Chapter 10
00:47:21.922 : en:Chapter 11
00:51:47.229 : en:Chapter 12
00:54:45.782 : en:Chapter 13
01:04:05.675 : en:Chapter 14
01:10:22.218 : en:Chapter 15
01:15:37.658 : en:Chapter 16
01:22:58.056 : en:Chapter 17
01:27:56.562 : en:Chapter 18
01:32:54.068 : en:Chapter 19
01:35:24.719 : en:Chapter 20
01:43:47.596 : en:Chapter 21
01:51:12.123 : en:Chapter 22


部分资源为软字幕,移动端推荐播放器:MxPlayer,nPlayer,infuse ,其他播放器请自行尝试。

部分资源为软字幕,电脑端推荐播放器:PotPlayer,完美解码,KMPLAYER,其他播放器请自行尝试。



1 个附件 售价 大小 下载 时间

2010.2160p.UHD.BluRay.x265.10bit.DV.TrueHD.7.1.Atmos.2Audio-SONYHD[1LOU.ME].torrent 0 金币 49.37K 3416 次 1月前

#1楼
发帖时间:2024-02-22 13:09:38   |   回复数:3
JYLin26
一派掌门
Thanks
1月前 #2楼
liyouchai
隐世仙人♂
谢谢楼主分享资源
1月前 #3楼
jokingcheung
超凡入圣№
谢谢分享
1月前 #4楼
游客组