Asuka601
隐世仙人♂

[2023] [欧美] [剧情] [WEB-4K] 饥饿游戏:鸣鸟与蛇之歌[HDR/杜比视界双版本][简繁英字幕].2023.2160p.UHD.BluRay.x265.10bit.DV.TrueHD.7.1.A

-->

完整标题:饥饿游戏:鸣鸟与蛇之歌[HDR/杜比视界双版本][简繁英字幕].2023.2160p.UHD.BluRay.x265.10bit.DV.TrueHD.7.1.Atmos-SONYHD 23.35GB



◎标  题 饥饿游戏:鸣鸟与蛇之歌
◎译  名 饥饿游戏:鸣鸟与蛇的歌谣 / 饥饿游戏前传:鸣鸟与灵蛇之歌(港) / 饥饿游戏:鸣鸟与游蛇之歌(台) / 鸣鸟与蛇之歌 / 鸣鸟与蛇的歌谣 / 鸣禽与蛇的歌谣 / 饥饿游戏前传 / The Hunger Games: The Ballad of Songbirds and Snakes
◎片  名 The Hunger Games: The Ballad of Songbirds & Snakes
◎年  代 2023
◎产  地 美国
◎类  别 剧情 / 动作 / 科幻 / 惊悚 / 战争 / 冒险
◎语  言 英语
◎上映日期 2023-11-17(美国 / 中国大陆) / 2023-11-15(法国)
◎IMDb评分 6.9/10 (87129人评价)
◎IMDb链接 https://www.imdb.com/title/tt10545296/
◎豆瓣评分 6.8/10 (64146人评价)
◎豆瓣链接 https://movie.douban.com/subject/34438298/
◎片  长 158分钟
◎导  演 弗朗西斯·劳伦斯 Francis Lawrence
◎编  剧 迈克尔·阿恩特 Michael Arndt
      迈克尔·莱斯利 Michael Lesslie
      苏珊·科林斯 Suzanne Collins
◎演  员 汤姆·布莱斯 Tom Blyth
      瑞秋·齐格勒 Rachel Zegler
      彼特·丁拉基 Peter Dinklage
      乔什·安德烈斯·里维拉 Josh Andrés Rivera
      亨特·莎弗 Hunter Schafer
      维奥拉·戴维斯 Viola Davis
      詹森·舒瓦兹曼 Jason Schwartzman
      伯恩·戈曼 Burn Gorman
      菲奥纽拉·弗拉纳根 Fionnula Flanagan
      达科·夏皮罗 Dakota Shapiro
      伊索贝尔·杰斯珀·琼斯 Isobel Jesper Jones
      麦肯齐·兰辛 Mackenzie Lansing
      艾琳·伯姆 Irene Böhm
      阿什利·廖 Ashley Liao
      艾米丽·霍菲尔 Amélie Hoeferle
      谢尔·布鲁沙伊特 Kjell Brutscheidt
      弗洛拉·蒂曼 Flora Thiemann
      乔治·索纳 George Somner
      阿约梅德·阿德根 Ayomide Adegun
      佐伊·蕾妮 Zoe Renee
      迈克尔·格雷科 Michael Greco
      莉莉·玛丽亚·库珀 Lilly Maria Cooper
      卡尔·斯宾塞 Carl Spencer
      德克斯特·索尔·安塞尔 Dexter Sol Ansell
      罗莎·戈茨勒 Rosa Gotzler
      雅典娜·史催特 Athena Strates
      迪米特里·阿博尔德 Dimitri Abold
      凯特琳·阿金佩鲁米 Kaitlyn Akinpelumi
      Mekyas Mulugeta
      Florian Burgkart
      Max Raphael
      Joshua Kantara
      Emma Frieda Brüggler
      Anni Baumann
      Serena Oexle
      Yalany Marschner
      Aaron Finn Schultz
      唐纳德·萨瑟兰 Donald Sutherland

◎简  介
    18岁的科里奥兰纳斯·斯诺(汤姆·布莱斯 饰)被选为第十届饥饿游戏的导师,与来自第十二区的贫困女孩露西·格蕾·贝尔德(瑞秋·齐格勒 饰)成为了“生死相依”的命运共同体。竞技场上,这是一场关乎自由、食物,甚至是尊重与权利的生死角逐;竞技场外,不忍与善意使斯诺决定不顾一切帮助露西在这场游戏中赢得胜利......当活下去的欲望与所遵守的规则背道而驰,命运的齿轮紧抓入自己手中时,他又该如何抉择?   影片改编自苏珊·柯林斯的同名小说。

##### MediaInfo ######
General
Unique ID : 247610125332295047310912009085533422633 (0xBA47F9B9C8CBC5C1AA4A46C5A09E0429)
Complete name : The.Hunger.Games.the.Ballad.of.Songbirds.And.Snakes.2023.2160p.UHD.BluRay.x265.10bit.DV.TrueHD.7.1.Atmos-SONYHD.mkv
Duration : 2 h 37 min
Overall bit rate mode : Variable
Overall bit rate : 21.3 Mb/s

Video
ID : 1
Format : HEVC
Format/Info : High Efficiency Video Coding
Format profile : Main [email protected]@High
HDR format : Dolby Vision, Version 1.0, dvhe.08.06, BL+RPU, HDR10 compatible / SMPTE ST 2086, HDR10 compatible
Codec ID : V_MPEGH/ISO/HEVC
Duration : 2 h 37 min
Bit rate : 16.9 Mb/s
Width : 3 840 pixels
Height : 1 608 pixels
Display aspect ratio : 2.40:1
Frame rate mode : Constant
Frame rate : 23.976 (24000/1001) FPS
Color space : YUV
Chroma subsampling : 4:2:0
Bit depth : 10 bits
Bits/(Pixel*Frame) : 0.114
Stream size : 18.5 GiB (79%)
Writing library : x265 3.5g2b25c9ba0+45:[Windows][MSVC 1926][64 bit] Yuuki 10bit+8bit+12bit
Encoding settings : rc=crf / crf=17.2000 / qcomp=0.60 / qpstep=4 / stats-write=0 / stats-read=0 / vbv-maxrate=160000 / vbv-bufsize=160000 / vbv-init=0.9 / min-vbv-fullness=50.0 / max-vbv-fullness=80.0 / crf-max=0.0 / crf-min=0.0 / no-lossless / no-cu-lossless / aq-mode=3 / aq-strength=0.70 / cbqpoffs=0 / crqpoffs=0 / ipratio=1.40 / pbratio=1.30 / psy-rd=2.00 / psy-rdoq=2.00 / deblock=-3:-3 / ref=6 / limit-refs=1 / no-limit-modes / bframes=11 / b-adapt=2 / bframe-bias=0 / b-pyramid / b-intra / weightp / weightb / min-keyint=1 / max-keyint=240 / rc-lookahead=72 / gop-lookahead=0 / scenecut=40 / hist-scenecut=0 / radl=0 / max-cu-size=64 / min-cu-size=8 / me=3 / subme=6 / merange=48 / rdoq-level=2 / rd=4 / rdpenalty=0 / dynamic-rd=0.00 / no-rd-refine / ----- / no-cutree / no-sao / no-rect / no-amp / no-open-gop / wpp / no-pmode / no-pme / no-psnr / no-ssim / nr-intra=0 / nr-inter=0 / no-constrained-intra / no-strong-intra-smoothing / max-tu-size=32 / tu-inter-depth=4 / tu-intra-depth=4 / limit-tu=0 / qg-size=32 / qpmax=69 / qpmin=0 / ----- / cpuid=1111039 / frame-threads=5 / numa-pools=+ / log-level=2 / input-csp=1 / input-res=3840x1608 / interlace=0 / level-idc=51 / high-tier=1 / uhd-bd=0 / no-allow-non-conformance / repeat-headers / aud / hrd / info / hash=0 / no-temporal-layers / lookahead-slices=0 / no-splice / no-intra-refresh / no-ssim-rd / signhide / no-tskip / max-merge=5 / temporal-mvp / no-frame-dup / no-hme / analyze-src-pics / no-sao-non-deblock / selective-sao=0 / early-skip / rskip / no-fast-intra / no-tskip-fast / no-splitrd-skip / zone-count=0 / no-strict-cbr / no-rc-grain / no-const-vbv / sar=0 / overscan=0 / videoformat=5 / range=0 / colorprim=9 / transfer=16 / colormatrix=9 / chromaloc=0 / display-window=0 / master-display=G(13250,34500)B(7500,3000)R(34000,16000)WP(15635,16450)L(10000000,1) / cll=999,122 / min-luma=0 / max-luma=1023 / log2-max-poc-lsb=8 / vui-timing-info / vui-hrd-info / slices=1 / no-opt-qp-pps / no-opt-ref-list-length-pps / no-multi-pass-opt-rps / scenecut-bias=0.05 / hist-threshold=0.03 / no-opt-cu-delta-qp / no-aq-motion / hdr10 / hdr10-opt / no-dhdr10-opt / no-idr-recovery-sei / analysis-reuse-level=0 / analysis-save-reuse-level=0 / analysis-load-reuse-level=0 / scale-factor=0 / refine-intra=0 / refine-inter=0 / refine-mv=1 / refine-ctu-distortion=0 / no-limit-sao / ctu-info=0 / no-lowpass-dct / refine-analysis-type=0 / copy-pic=1 / max-ausize-factor=1.0 / no-dynamic-refine / no-single-sei / no-hevc-aq / no-svt / no-field / qp-adaptation-range=1.00 / scenecut-aware-qp=0conformance-window-offsets / right=0 / bottom=0 / decoder-max-rate=0 / no-vbv-live-multi-pass
Default : Yes
Forced : No
Color range : Limited
Color primaries : BT.2020
Transfer characteristics : PQ
Matrix coefficients : BT.2020 non-constant
Mastering display color primaries : Display P3
Mastering display luminance : min: 0.0001 cd/m2, max: 1000 cd/m2
Maximum Content Light Level : 999 cd/m2
Maximum Frame-Average Light Level : 122 cd/m2

Audio
ID : 2
ID in the original source medium : 4352 (0x1100)
Format : MLP FBA 16-ch
Format/Info : Meridian Lossless Packing FBA with 16-channel presentation
Commercial name : Dolby TrueHD with Dolby Atmos
Codec ID : A_TRUEHD
Duration : 2 h 37 min
Bit rate mode : Variable
Bit rate : 4 202 kb/s
Maximum bit rate : 7 395 kb/s
Channel(s) : 8 channels
Channel layout : L R C LFE Ls Rs Lb Rb
Sampling rate : 48.0 kHz
Frame rate : 1 200.000 FPS (40 SPF)
Compression mode : Lossless
Stream size : 4.61 GiB (20%)
Language : English
Default : Yes
Forced : No
Original source medium : Blu-ray
Number of dynamic objects : 11
Bed channel count : 1 channel
Bed channel configuration : LFE

Text #1
ID : 3
ID in the original source medium : 4771 (0x12A3)
Format : PGS
Muxing mode : zlib
Codec ID : S_HDMV/PGS
Codec ID/Info : Picture based subtitle format used on BDs/HD-DVDs
Duration : 2 h 30 min
Bit rate : 61.8 kb/s
Frame rate : 0.502 FPS
Count of elements : 4546
Stream size : 66.6 MiB (0%)
Title : chs&eng
Language : Chinese
Default : Yes
Forced : No
Original source medium : Blu-ray

Text #2
ID : 4
ID in the original source medium : 4772 (0x12A4)
Format : PGS
Muxing mode : zlib
Codec ID : S_HDMV/PGS
Codec ID/Info : Picture based subtitle format used on BDs/HD-DVDs
Duration : 2 h 30 min
Bit rate : 62.5 kb/s
Frame rate : 0.502 FPS
Count of elements : 4546
Stream size : 67.4 MiB (0%)
Title : cht&eng
Language : Chinese
Default : No
Forced : No
Original source medium : Blu-ray

Text #3
ID : 5
ID in the original source medium : 4773 (0x12A5)
Format : PGS
Muxing mode : zlib
Codec ID : S_HDMV/PGS
Codec ID/Info : Picture based subtitle format used on BDs/HD-DVDs
Duration : 2 h 30 min
Bit rate : 41.6 kb/s
Frame rate : 0.502 FPS
Count of elements : 4546
Stream size : 44.9 MiB (0%)
Title : chs
Language : Chinese
Default : No
Forced : No
Original source medium : Blu-ray

Text #4
ID : 6
ID in the original source medium : 4774 (0x12A6)
Format : PGS
Muxing mode : zlib
Codec ID : S_HDMV/PGS
Codec ID/Info : Picture based subtitle format used on BDs/HD-DVDs
Duration : 2 h 30 min
Bit rate : 42.3 kb/s
Frame rate : 0.502 FPS
Count of elements : 4546
Stream size : 45.7 MiB (0%)
Title : cht
Language : Chinese
Default : No
Forced : No
Original source medium : Blu-ray

Text #5
ID : 7
ID in the original source medium : 4768 (0x12A0)
Format : PGS
Muxing mode : zlib
Codec ID : S_HDMV/PGS
Codec ID/Info : Picture based subtitle format used on BDs/HD-DVDs
Duration : 2 h 36 min
Bit rate : 42.8 kb/s
Frame rate : 0.566 FPS
Count of elements : 5308
Stream size : 47.8 MiB (0%)
Language : English
Default : No
Forced : No
Original source medium : Blu-ray

Menu
00:00:00.000 : en:Chapter 01
00:12:36.504 : en:Chapter 02
00:24:22.586 : en:Chapter 03
00:34:06.001 : en:Chapter 04
00:46:53.936 : en:Chapter 05
00:56:09.740 : en:Chapter 06
01:08:28.436 : en:Chapter 07
01:19:22.423 : en:Chapter 08
01:26:41.112 : en:Chapter 09
01:33:59.506 : en:Chapter 10
01:40:45.706 : en:Chapter 11
01:47:35.657 : en:Chapter 12
01:54:55.680 : en:Chapter 13
02:05:09.542 : en:Chapter 14
02:13:03.391 : en:Chapter 15
02:19:05.795 : en:Chapter 16


部分资源为软字幕,移动端推荐播放器:MxPlayer,nPlayer,infuse ,其他播放器请自行尝试。

部分资源为软字幕,电脑端推荐播放器:PotPlayer,完美解码,KMPLAYER,其他播放器请自行尝试。



1 个附件 售价 大小 下载 时间

2023.2160p.UHD.BluRay.x265.10bit.DV.TrueHD.7.1.Atmos-SONYHD[1LOU.ME].torrent 0 金币 61.57K 2881 次 1月前

#1楼
发帖时间:2024-02-22 13:08:50   |   回复数:2
feung18
武林盟主
感謝樓主辛苦 !
1月前 #2楼
jokingcheung
超凡入圣№
谢谢分享
1月前 #3楼
游客组