lvchao9947
一代宗师

[2016] [欧美] [动画] [WEB-4K] 魔弦传说[HDR/杜比视界双版本][国英多音轨/中文字幕].Kubo.and.the.Two.Strings.2016.2160p.BluRay.DoVi.x2

-->

完整标题:魔弦传说[HDR/杜比视界双版本][国英多音轨/中文字幕].Kubo.and.the.Two.Strings.2016.2160p.BluRay.DoVi.x265.10bit.Atmos.TrueHD7.1-CTRLHD 18.20GB



◎标  题 魔弦传说
◎译  名 久保与二弦琴 / 酷宝:魔弦传说(台) / 捉妖敢死队(港) / 久保与二胡
◎片  名 Kubo and the Two Strings
◎年  代 2016
◎产  地 美国
◎类  别 动画 / 奇幻 / 冒险
◎语  言 英语
◎上映日期 2017-01-13(中国大陆) / 2016-08-19(美国)
◎IMDb评分 7.7/10 (137100人评价)
◎IMDb链接 https://www.imdb.com/title/tt4302938/
◎豆瓣评分 7.4/10 (78991人评价)
◎豆瓣链接 https://movie.douban.com/subject/26287884/
◎片  长 102分钟
◎导  演 特拉维斯·奈特 Travis Knight
◎编  剧 马克·海姆斯 Marc Haimes
      克里斯·巴特勒 Chris Butler
      珊农·廷德尔 Shannon Tindle
◎演  员 查理兹·塞隆 Charlize Theron
      马修·麦康纳 Matthew McConaughey
      拉尔夫·费因斯 Ralph Fiennes
      阿特·帕金森 Art Parkinson
      鲁妮·玛拉 Rooney Mara
      武井乔治 George Takei
      田川洋行 Cary-Hiroyuki Tagawa
      野路美苗 Minae Noji
      布伦达·瓦卡罗 Brenda Vaccaro
      肯·竹本 Ken Takemoto
      瑞金娜·斯派克特 Regina Spektor
      艾德文·瑞丁 Edvin Ryding

◎简  介
    独眼男孩久保(阿特·帕金森 Art Parkinson 配音)和身体孱弱的母亲过着相依为命的日子。白天,久保靠着给村民们讲述怪力乱神的精彩故事赚钱,天一黑,他就必须回到家中照顾母亲。一天,久保回家晚了,曾经夺走了久保一只眼睛的邪恶姐妹(鲁妮·玛拉 Rooney Mara 配音)来到久保家,企图夺走他的另一只眼睛。在混战中,久保的母亲死去了,死里逃生的久保被迫离开村庄,在外流亡。   久保得知父亲去世之前留下了一副能够保护久保不受到邪恶姐妹和其父亲月神(拉尔夫·费因斯 Ralph Fiennes 配音)侵害的盔甲,于是决定启程寻找它。路上久保偶遇了失忆巫师甲壳虫(马修·麦康纳 Matthew McConaughey 配音),甲壳虫也加入了久保的队伍中。

点击图片可查看大图

软字幕无法在截图上展现,HDR版本/杜比视界版本截图会出现颜色异常,请使用支持的设备播放!

##### MediaInfo ######
General
Unique ID : 7067375444285144366162720022501435277 (0x55120830C5A030734C64A867B02A78D)
Complete name : Kubo.and.the.Two.Strings.2016.2160p.BluRay.DoVi.x265.10bit.Atmos.TrueHD7.1-CTRLHD.mkv
Duration : 1 h 41 min
Overall bit rate mode : Variable
Overall bit rate : 25.7 Mb/s

Video
ID : 1
Format : HEVC
Format/Info : High Efficiency Video Coding
Format profile : Main 10@L5@High
HDR format : Dolby Vision, Version 1.0, dvhe.08.06, BL+RPU, HDR10 compatible / SMPTE ST 2086, HDR10 compatible
Codec ID : V_MPEGH/ISO/HEVC
Duration : 1 h 41 min
Bit rate : 20.0 Mb/s
Width : 3 840 pixels
Height : 1 608 pixels
Display aspect ratio : 2.40:1
Frame rate mode : Constant
Frame rate : 24.000 FPS
Color space : YUV
Chroma subsampling : 4:2:0 (Type 2)
Bit depth : 10 bits
Bits/(Pixel*Frame) : 0.135
Stream size : 14.2 GiB (78%)
Default : Yes
Forced : No
Color range : Limited
Color primaries : BT.2020
Transfer characteristics : PQ
Matrix coefficients : BT.2020 non-constant
Mastering display color primaries : Display P3
Mastering display luminance : min: 0.0001 cd/m2, max: 1000 cd/m2
Maximum Content Light Level : 4057 cd/m2
Maximum Frame-Average Light Level : 321 cd/m2

Audio #1
ID : 2
Format : MLP FBA 16-ch
Format/Info : Meridian Lossless Packing FBA with 16-channel presentation
Commercial name : Dolby TrueHD with Dolby Atmos
Codec ID : A_TRUEHD
Duration : 1 h 41 min
Bit rate mode : Variable
Bit rate : 3 882 kb/s
Maximum bit rate : 6 432 kb/s
Channel(s) : 8 channels
Channel layout : L R C LFE Ls Rs Lb Rb
Sampling rate : 48.0 kHz
Frame rate : 1 200.000 FPS (40 SPF)
Compression mode : Lossless
Stream size : 2.75 GiB (15%)
Title : 英语
Language : English
Default : No
Forced : No
Number of dynamic objects : 11
Bed channel count : 1 channel
Bed channel configuration : LFE

Audio #2
ID : 3
Format : AC-3
Format/Info : Audio Coding 3
Commercial name : Dolby Digital
Codec ID : A_AC3
Duration : 1 h 41 min
Bit rate mode : Constant
Bit rate : 384 kb/s
Channel(s) : 6 channels
Channel layout : L R C LFE Ls Rs
Sampling rate : 48.0 kHz
Frame rate : 31.250 FPS (1536 SPF)
Compression mode : Lossy
Stream size : 279 MiB (1%)
Title : 英语
Language : English
Service kind : Complete Main
Default : No
Forced : No

Audio #3
ID : 4
Format : AC-3
Format/Info : Audio Coding 3
Commercial name : Dolby Digital
Codec ID : A_AC3
Duration : 1 h 41 min
Bit rate mode : Constant
Bit rate : 640 kb/s
Channel(s) : 6 channels
Channel layout : L R C LFE Ls Rs
Sampling rate : 48.0 kHz
Frame rate : 31.250 FPS (1536 SPF)
Compression mode : Lossy
Delay relative to video : 1 s 180 ms
Stream size : 464 MiB (2%)
Title : 公映国语
Language : Chinese
Service kind : Complete Main
Default : Yes
Forced : No

Audio #4
ID : 5
Format : AC-3
Format/Info : Audio Coding 3
Commercial name : Dolby Digital
Codec ID : A_AC3
Duration : 1 h 41 min
Bit rate mode : Constant
Bit rate : 640 kb/s
Channel(s) : 6 channels
Channel layout : L R C LFE Ls Rs
Sampling rate : 48.0 kHz
Frame rate : 31.250 FPS (1536 SPF)
Compression mode : Lossy
Delay relative to video : 2 s 200 ms
Stream size : 465 MiB (2%)
Title : 台配国语
Language : Twi
Service kind : Complete Main
Default : No
Forced : No

Text #1
ID : 6
Format : PGS
Muxing mode : zlib
Codec ID : S_HDMV/PGS
Codec ID/Info : Picture based subtitle format used on BDs/HD-DVDs
Duration : 1 h 32 min
Bit rate : 19.5 kb/s
Frame rate : 0.338 FPS
Count of elements : 1881
Stream size : 12.9 MiB (0%)
Title : 公映字幕
Language : Chinese
Default : Yes
Forced : No

Text #2
ID : 7
Format : PGS
Muxing mode : zlib
Codec ID : S_HDMV/PGS
Codec ID/Info : Picture based subtitle format used on BDs/HD-DVDs
Duration : 1 h 32 min
Bit rate : 19.7 kb/s
Frame rate : 0.335 FPS
Count of elements : 1864
Stream size : 13.0 MiB (0%)
Title : 台配字幕
Language : Chinese
Default : No
Forced : No


部分资源为软字幕,移动端推荐播放器:MxPlayer,nPlayer,infuse ,其他播放器请自行尝试。

部分资源为软字幕,电脑端推荐播放器:PotPlayer,完美解码,KMPLAYER,其他播放器请自行尝试。



1 个附件 售价 大小 下载 时间

Kubo.and.the.Two.Strings.2016.2160p.BluRay.DoVi.x265.10bit.Atmos.TrueHD7.1-..[1LOU.ME].torrent 0 金币 48.79K 1663 次 1月前

#1楼
发帖时间:2024-02-22 13:08:01   |   回复数:3
feung18
武林盟主
感謝樓主辛苦 !
1月前 #2楼
liyouchai
隐世仙人♂
谢谢楼主分享资源
1月前 #3楼
jokingcheung
超凡入圣№
谢谢分享
1月前 #4楼
游客组