Asuka601
隐世仙人♂

[2009] [欧美] [剧情] [BD-1080P] 地铁惊魂[简繁英字幕].The.Taking.of.Pelham.123.2009.1080p.BluRay.x265.10bit.DTS-SONYHD 7.4

-->

完整标题:地铁惊魂[简繁英字幕].The.Taking.of.Pelham.123.2009.1080p.BluRay.x265.10bit.DTS-SONYHD 7.41GB



◎标  题 地铁惊魂
◎译  名 骑劫地下铁 / 亡命快劫(台) / 骑劫列车123(港) / 地铁大劫案
◎片  名 The Taking of Pelham 123
◎年  代 2009
◎产  地 美国 / 英国
◎类  别 剧情 / 动作 / 犯罪
◎语  言 英语
◎上映日期 2009-10-15(中国大陆) / 2009-06-12(美国)
◎IMDb评分 6.4/10 (201356人评价)
◎IMDb链接 https://www.imdb.com/title/tt1111422/
◎豆瓣评分 6.7/10 (33067人评价)
◎豆瓣链接 https://movie.douban.com/subject/2974273/
◎片  长 106分钟
◎导  演 托尼·斯科特 Tony Scott
◎编  剧 布莱恩·海尔格兰德 Brian Helgeland
      约翰·戈迪 John Godey
◎演  员 丹泽尔·华盛顿 Denzel Washington
      约翰·特拉沃尔塔 John Travolta
      约翰·特托罗 John Turturro
      维克多·高佳卡 Victor Gojcaj
      路易斯·古兹曼 Luis Guzmán
      詹姆斯·甘多菲尼 James Gandolfini
      Ronald E. Giles
      凯瑟琳·西吉斯蒙德 Katherine Sigismund
      Danny Pennacchi
      麦克·休斯顿 Mike Houston
      Robert Vataj
      Julian Walker
      Danielle Glick
      Walter Hartung
      Peter Bucossi Peter Bucossi
      贾斯汀·戴维斯 Justiin Davis
      约瑟夫·辛特隆 Joseph Cintron
      Teddy Valdes
      Bill Walters Bill Walters
      Tim Schuebel
      尼克·波托兰宁 Nick Poltoranin
      约翰·拉维尔 John Lavelle
      安洁纽·艾莉丝 Aunjanue Ellis
      杰森·切尔博 Jason Cerbone
      盖里·巴萨拉巴 Gary Basaraba
      卡西迪·加德 Cassidy Gard
      迈克尔·里斯波利 Michael Rispoli
      拉蒙·罗德里格兹 Ramon Rodriguez
      爱丽丝·克雷梅尔堡 Alice Kremelberg
      杰森·巴特勒·哈纳 Jason Butler Harner
      阿莱克斯·卡鲁兹斯凯 Alex Kaluzhsky
      Billy Devlin Billy Devlin
      约翰·本杰明·西基 John Benjamin Hickey
      勒内·大卫·伊弗拉 Rene David Ifrah
      大卫·尼尔里姆 David Kneeream
      玛丽亚·巴尔蒂罗莫 Maria Bartiromo
      Sean Meehan Sean Meehan
      迈克尔·米姆 Michael Mihm
      格本加·阿金纳格贝 Gbenga Akinnagbe
      布拉德·李·温德 Brad Lee Wind
      CarloVito Santangelo CarloVito Santangelo
      丹尼尔·斯图尔特·谢尔曼 Daniel Stewart Sherman
      托德·苏斯曼 Todd Susman
      Paul Thornton Paul Thornton
      肖恩·尼尔森 Sean Nelson
      尼克·罗兰 Nick Loren
      布莱恩·黑利 Brian Haley

◎简  介
    沃特(丹泽尔•华盛顿 Denzel Washington 饰)是一名纽约地铁调度员,负责控制各条线路的调配运营。某日,一群恐怖分子劫持了地铁123号线,匪首雷德(约翰•屈伏塔 John Travolta 饰)为前美国雇佣兵,声言要提供1000万赎金才释放人质。巧的是,该数额正式保险金、商业贷款等提取的上限。地铁123号线在隧道里飞驰,乘警多人毙命,司机被挟持,乘客人人自危。沃特因工作失职被调离,后因雷德点名,才被迫参与谈判,面对贪污的质问,他的坦诚拯救了一名年轻乘客的生命。面对劫匪提出的高额赎金和苛刻条件,纽约市长如坐针毡,正当他准备划破钱款平息事端之时,丧心病狂的劫匪又突然改变了主意。作为高速运输管理局要员,沃特决定用自己替换人质,与劫匪展开了一场惊心动魄的生死搏斗……

##### MediaInfo ######
General
Unique ID : 231965196039325025063874152518075479998 (0xAE82DF28700805F8090D1A0E1BA2F7BE)
Complete name : The.Taking.of.Pelham.123.2009.1080p.BluRay.x265.10bit.DTS-SONYHD.mkv
Duration : 1 h 45 min
Overall bit rate : 10.0 Mb/s

Video
ID : 1
Format : HEVC
Format/Info : High Efficiency Video Coding
Format profile : Main 10@L4@Main
Codec ID : V_MPEGH/ISO/HEVC
Duration : 1 h 45 min
Bit rate : 8 398 kb/s
Width : 1 920 pixels
Height : 800 pixels
Display aspect ratio : 2.40:1
Frame rate mode : Constant
Frame rate : 23.976 (24000/1001) FPS
Color space : YUV
Chroma subsampling : 4:2:0
Bit depth : 10 bits
Bits/(Pixel*Frame) : 0.228
Stream size : 6.21 GiB (84%)
Writing library : x265 3.5g2b25c9ba0+45:[Windows][GCC 10.2.0][64 bit] Yuuki 10bit+8bit+12bit
Encoding settings : rc=crf / crf=19.2700 / qcomp=0.60 / qpstep=4 / stats-write=0 / stats-read=0 / no-lossless / no-cu-lossless / aq-mode=3 / aq-strength=0.90 / cbqpoffs=0 / crqpoffs=0 / ipratio=1.40 / pbratio=1.30 / psy-rd=2.00 / psy-rdoq=0.00 / deblock=0:0 / ref=6 / limit-refs=1 / no-limit-modes / bframes=8 / b-adapt=2 / bframe-bias=0 / b-pyramid / b-intra / weightp / weightb / min-keyint=24 / max-keyint=240 / rc-lookahead=24 / gop-lookahead=0 / scenecut=40 / hist-scenecut=0 / radl=0 / max-cu-size=64 / min-cu-size=8 / me=3 / subme=7 / merange=48 / rdoq-level=0 / rd=4 / rdpenalty=0 / dynamic-rd=0.00 / no-rd-refine / ----- / cutree / sao / no-rect / no-amp / no-open-gop / wpp / no-pmode / no-pme / no-psnr / no-ssim / nr-intra=0 / nr-inter=0 / no-constrained-intra / no-strong-intra-smoothing / max-tu-size=32 / tu-inter-depth=1 / tu-intra-depth=1 / limit-tu=0 / qg-size=32 / qpmax=69 / qpmin=0 / ----- / cpuid=1111039 / frame-threads=5 / numa-pools=+ / log-level=2 / input-csp=1 / input-res=1920x800 / interlace=0 / level-idc=0 / high-tier=1 / uhd-bd=0 / no-allow-non-conformance / repeat-headers / aud / no-hrd / info / hash=0 / no-temporal-layers / lookahead-slices=0 / no-splice / no-intra-refresh / no-ssim-rd / signhide / no-tskip / max-merge=3 / temporal-mvp / no-frame-dup / no-hme / no-analyze-src-pics / no-sao-non-deblock / selective-sao=4 / early-skip / rskip / no-fast-intra / no-tskip-fast / no-splitrd-skip / zone-count=0 / no-strict-cbr / no-rc-grain / no-const-vbv / sar=0 / overscan=0 / videoformat=5 / range=0 / colorprim=2 / transfer=2 / colormatrix=2 / chromaloc=0 / display-window=0 / cll=0,0 / min-luma=0 / max-luma=1023 / log2-max-poc-lsb=8 / vui-timing-info / vui-hrd-info / slices=1 / no-opt-qp-pps / no-opt-ref-list-length-pps / no-multi-pass-opt-rps / scenecut-bias=0.05 / hist-threshold=0.03 / no-opt-cu-delta-qp / no-aq-motion / no-hdr10 / no-hdr10-opt / no-dhdr10-opt / no-idr-recovery-sei / analysis-reuse-level=0 / analysis-save-reuse-level=0 / analysis-load-reuse-level=0 / scale-factor=0 / refine-intra=0 / refine-inter=0 / refine-mv=1 / refine-ctu-distortion=0 / no-limit-sao / ctu-info=0 / no-lowpass-dct / refine-analysis-type=0 / copy-pic=1 / max-ausize-factor=1.0 / no-dynamic-refine / no-single-sei / no-hevc-aq / no-svt / no-field / qp-adaptation-range=1.00 / scenecut-aware-qp=0conformance-window-offsets / right=0 / bottom=0 / decoder-max-rate=0 / no-vbv-live-multi-pass
Default : Yes
Forced : No

Audio
ID : 2
ID in the original source medium : 4352 (0x1100)
Format : DTS
Format/Info : Digital Theater Systems
Codec ID : A_DTS
Duration : 1 h 45 min
Bit rate mode : Constant
Bit rate : 1 509 kb/s
Channel(s) : 6 channels
Channel layout : C L R Ls Rs LFE
Sampling rate : 48.0 kHz
Frame rate : 93.750 FPS (512 SPF)
Bit depth : 24 bits
Compression mode : Lossy
Stream size : 1.12 GiB (15%)
Title : English
Language : English
Default : Yes
Forced : No
Original source medium : Blu-ray

Text #1
ID : 3
ID in the original source medium : 4632 (0x1218)
Format : PGS
Muxing mode : zlib
Codec ID : S_HDMV/PGS
Codec ID/Info : Picture based subtitle format used on BDs/HD-DVDs
Duration : 1 h 45 min
Bit rate : 57.0 kb/s
Frame rate : 0.489 FPS
Count of elements : 3099
Stream size : 43.0 MiB (1%)
Title : chs&eng
Language : Chinese
Default : Yes
Forced : No
Original source medium : Blu-ray

Text #2
ID : 4
ID in the original source medium : 4633 (0x1219)
Format : PGS
Muxing mode : zlib
Codec ID : S_HDMV/PGS
Codec ID/Info : Picture based subtitle format used on BDs/HD-DVDs
Duration : 1 h 45 min
Bit rate : 57.2 kb/s
Frame rate : 0.489 FPS
Count of elements : 3099
Stream size : 43.2 MiB (1%)
Title : cht&eng
Language : Chinese
Default : No
Forced : No
Original source medium : Blu-ray

Text #3
ID : 5
ID in the original source medium : 4634 (0x121A)
Format : PGS
Muxing mode : zlib
Codec ID : S_HDMV/PGS
Codec ID/Info : Picture based subtitle format used on BDs/HD-DVDs
Duration : 1 h 45 min
Bit rate : 30.4 kb/s
Frame rate : 0.489 FPS
Count of elements : 3099
Stream size : 22.9 MiB (0%)
Title : chs
Language : Chinese
Default : No
Forced : No
Original source medium : Blu-ray

Text #4
ID : 6
ID in the original source medium : 4635 (0x121B)
Format : PGS
Muxing mode : zlib
Codec ID : S_HDMV/PGS
Codec ID/Info : Picture based subtitle format used on BDs/HD-DVDs
Duration : 1 h 45 min
Bit rate : 30.6 kb/s
Frame rate : 0.489 FPS
Count of elements : 3099
Stream size : 23.1 MiB (0%)
Title : cht
Language : Chinese
Default : No
Forced : No
Original source medium : Blu-ray

Text #5
ID : 7
ID in the original source medium : 4608 (0x1200)
Format : PGS
Muxing mode : zlib
Codec ID : S_HDMV/PGS
Codec ID/Info : Picture based subtitle format used on BDs/HD-DVDs
Duration : 1 h 44 min
Bit rate : 41.5 kb/s
Frame rate : 0.453 FPS
Count of elements : 2832
Stream size : 30.9 MiB (0%)
Title : eng
Language : English
Default : No
Forced : No
Original source medium : Blu-ray

Menu
00:00:00.000 : en:Chapter 01
00:07:10.346 : en:Chapter 02
00:12:56.192 : en:Chapter 03
00:18:20.682 : en:Chapter 04
00:24:19.833 : en:Chapter 05
00:30:08.556 : en:Chapter 06
00:36:33.691 : en:Chapter 07
00:42:26.794 : en:Chapter 08
00:48:44.212 : en:Chapter 09
00:54:05.450 : en:Chapter 10
01:00:23.286 : en:Chapter 11
01:07:12.570 : en:Chapter 12
01:12:07.281 : en:Chapter 13
01:20:04.716 : en:Chapter 14
01:25:28.414 : en:Chapter 15
01:32:53.568 : en:Chapter 16


部分资源为软字幕,移动端推荐播放器:MxPlayer,nPlayer,infuse ,其他播放器请自行尝试。

部分资源为软字幕,电脑端推荐播放器:PotPlayer,完美解码,KMPLAYER,其他播放器请自行尝试。



1 个附件 售价 大小 下载 时间

The.Taking.of.Pelham.123.2009.1080p.BluRay.x265.10bit.DTS-SONYHD[1LOU.ME].torrent 0 金币 21.42K 1799 次 2月前

#1楼
发帖时间:2023-12-06 21:51:05   |   回复数:1
feung18
武林盟主
感謝樓主辛苦 !
2月前 #2楼
游客组