Asuka601
隐世仙人♂

[2018] [欧美] [动作] [WEB-4K] 通勤营救[国英多音轨/中文字幕/特效字幕].The.Commuter.2018.Bluray.2160p.TrueHD7.1.HDR.x265.10bit-Dr

-->

完整标题:通勤营救[国英多音轨/中文字幕/特效字幕].The.Commuter.2018.Bluray.2160p.TrueHD7.1.HDR.x265.10bit-DreamHD 23.96GB



◎标  题 通勤营救
◎译  名 疾速救援(台) / 追命列车(港)
◎片  名 The Commuter
◎年  代 2018
◎产  地 美国 / 英国
◎类  别 动作 / 惊悚 / 犯罪
◎语  言 英语
◎上映日期 2018-03-30(中国大陆) / 2018-01-12(美国)
◎IMDb评分 6.3/10 (118513人评价)
◎IMDb链接 https://www.imdb.com/title/tt1590193/
◎豆瓣评分 6.5/10 (68177人评价)
◎豆瓣链接 https://movie.douban.com/subject/7056414/
◎片  长 105分钟 / 104分钟(中国大陆)
◎导  演 佐米·希尔拉 Jaume Collet-Serra
◎编  剧 拜伦·维林格 Byron Willinger
      菲利普·德·布拉西 Philip de Blasi
      瑞安·恩格尔 Ryan Engle
◎演  员 连姆·尼森 Liam Neeson
      维拉·法米加 Vera Farmiga
      帕特里克·威尔森 Patrick Wilson
      乔纳森·班克斯 Jonathan Banks
      山姆·尼尔 Sam Neill
      伊丽莎白·麦戈文 Elizabeth McGovern
      基连·斯科特 Killian Scott
      沙扎德·拉蒂夫 Shazad Latif
      安迪·尼曼 Andy Nyman
      克拉拉·拉戈 Clara Lago
      罗兰·默勒 Roland Møller
      弗洛伦丝·皮尤 Florence Pugh
      迪恩-查尔斯·查普曼 Dean-Charles Chapman
      埃拉-雷·史密斯 Ella-Rae Smith
      妮拉·阿利亚 Nila Aalia
      柯林·麦克法兰 Colin McFarlane
      寇布勒·霍尔德布鲁克-史密斯 Kobna Holdbrook-Smith
      亚当·那加提斯 Adam Nagaitis
      金斯利·本-阿迪尔 Kingsley Ben-Adir
      戴姆森·伊德瑞斯 Damson Idris
      本·卡普兰 Ben Caplan
      利蒂希娅·赖特 Letitia Wright
      杰米·比米什 Jamie Beamish
      阿拉娜·玛丽亚 Alana Maria
      杰米·梅内德斯 Jaime Menéndez
      斯图尔特·惠兰 Stuart Whelan
      爱德华·布卢梅尔 Edward Bluemel

◎简  介
    影片将故事设定在一列通勤列车上,一位十年如一日乘坐列车上下班的商界人士麦考利(连姆·尼森 饰),偶遇一位主动搭讪的“神秘乘客”乔安娜(维拉·法米加 饰)。乔安娜为麦考利提供了一个极具诱惑性的任务——找出车上的一位乘客,即可获得一笔巨额现金作为回报。但在寻找的过程中,麦考利逐渐发现自己卷入到一场致命的危险处境中。   他是否能够从这辆“恐怖列车”中成功逃脱,背后又隐藏着怎样的惊天阴谋。随着列车不断加速,真相逐一揭开......

点击图片可查看大图

软字幕无法在截图上展现,HDR版本/杜比视界版本截图会出现颜色异常,请使用支持的设备播放!

##### MediaInfo ######
General
Unique ID : 34963578109992322947752699522083578847 (0x1A4DBD7E0AB5144E38E902119891E3DF)
Complete name : The.Commuter.2018.Bluray.2160p.TrueHD7.1.HDR.x265.10bit-DreamHD.mkv
Duration : 1 h 44 min
Overall bit rate mode : Variable
Overall bit rate : 32.7 Mb/s

Video
ID : 1
Format : HEVC
Format/Info : High Efficiency Video Coding
Format profile : Main 10@L5@Main
HDR format : SMPTE ST 2086, HDR10 compatible
Codec ID : V_MPEGH/ISO/HEVC
Duration : 1 h 44 min
Bit rate : 25.5 Mb/s
Width : 3 840 pixels
Height : 1 604 pixels
Display aspect ratio : 2.40:1
Frame rate mode : Constant
Frame rate : 23.976 (24000/1001) FPS
Color space : YUV
Chroma subsampling : 4:2:0 (Type 2)
Bit depth : 10 bits
Bits/(Pixel*Frame) : 0.172
Stream size : 18.7 GiB (78%)
Writing library : x265 3.5+100-3dae0c3cc:[Windows][GCC 12.2.0][64 bit] 10bit
Encoding settings : cpuid=1111039 / frame-threads=5 / numa-pools=64,32,0,0 / wpp / no-pmode / no-pme / no-psnr / no-ssim / log-level=2 / input-csp=1 / input-res=3840x1604 / interlace=0 / total-frames=0 / level-idc=0 / high-tier=1 / uhd-bd=0 / ref=6 / no-allow-non-conformance / repeat-headers / annexb / no-aud / no-eob / no-eos / no-hrd / info / hash=0 / temporal-layers=0 / no-open-gop / min-keyint=23 / keyint=250 / gop-lookahead=0 / bframes=14 / b-adapt=2 / b-pyramid / bframe-bias=0 / rc-lookahead=75 / lookahead-slices=8 / scenecut=40 / no-hist-scenecut / radl=0 / no-splice / no-intra-refresh / ctu=32 / min-cu-size=8 / no-rect / no-amp / max-tu-size=32 / tu-inter-depth=1 / tu-intra-depth=1 / limit-tu=0 / rdoq-level=2 / dynamic-rd=0.00 / no-ssim-rd / signhide / no-tskip / nr-intra=0 / nr-inter=0 / no-constrained-intra / no-strong-intra-smoothing / max-merge=3 / limit-refs=1 / no-limit-modes / me=3 / subme=7 / merange=64 / temporal-mvp / no-frame-dup / no-hme / weightp / weightb / no-analyze-src-pics / deblock=0:0 / no-sao / no-sao-non-deblock / rd=4 / selective-sao=0 / no-early-skip / rskip / no-fast-intra / no-tskip-fast / no-cu-lossless / b-intra / no-splitrd-skip / rdpenalty=2 / psy-rd=3.00 / psy-rdoq=4.80 / no-rd-refine / no-lossless / cbqpoffs=0 / crqpoffs=0 / rc=crf / crf=14.0 / qcomp=0.60 / qpstep=4 / stats-write=0 / stats-read=0 / ipratio=1.40 / pbratio=1.30 / aq-mode=1 / aq-strength=1.00 / cutree / zone-count=0 / no-strict-cbr / qg-size=32 / no-rc-grain / qpmax=69 / qpmin=0 / no-const-vbv / sar=0 / overscan=0 / videoformat=5 / range=0 / colorprim=9 / transfer=16 / colormatrix=9 / chromaloc=1 / chromaloc-top=2 / chromaloc-bottom=2 / display-window=0 / master-display=G(13250,34500)B(7500,3000)R(34000,16000)WP(15635,16450)L(10000000,50) / cll=1000,530 / min-luma=0 / max-luma=1023 / log2-max-poc-lsb=8 / vui-timing-info / vui-hrd-info / slices=1 / no-opt-qp-pps / no-opt-ref-list-length-pps / no-multi-pass-opt-rps / scenecut-bias=0.05 / no-opt-cu-delta-qp / aq-motion / hdr10 / hdr10-opt / no-dhdr10-opt / no-idr-recovery-sei / analysis-reuse-level=0 / analysis-save-reuse-level=0 / analysis-load-reuse-level=0 / scale-factor=0 / refine-intra=0 / refine-inter=0 / refine-mv=1 / refine-ctu-distortion=0 / no-limit-sao / ctu-info=0 / no-lowpass-dct / refine-analysis-type=0 / copy-pic=1 / max-ausize-factor=1.0 / no-dynamic-refine / no-single-sei / no-hevc-aq / no-svt / no-field / qp-adaptation-range=1.00 / scenecut-aware-qp=0conformance-window-offsets / right=0 / bottom=0 / decoder-max-rate=0 / no-vbv-live-multi-pass / no-mcstf / no-sbrc
Default : Yes
Forced : No
Color range : Limited
Color primaries : BT.2020
Transfer characteristics : PQ
Matrix coefficients : BT.2020 non-constant
Mastering display color primaries : Display P3
Mastering display luminance : min: 0.0050 cd/m2, max: 1000 cd/m2
Maximum Content Light Level : 1000 cd/m2
Maximum Frame-Average Light Level : 530 cd/m2

Audio #1
ID : 2
ID in the original source medium : 4352 (0x1100)
Format : MLP FBA 16-ch
Format/Info : Meridian Lossless Packing FBA with 16-channel presentation
Commercial name : Dolby TrueHD with Dolby Atmos
Codec ID : A_TRUEHD
Duration : 1 h 44 min
Bit rate mode : Variable
Bit rate : 4 211 kb/s
Maximum bit rate : 7 737 kb/s
Channel(s) : 8 channels
Channel layout : L R C LFE Ls Rs Lb Rb
Sampling rate : 48.0 kHz
Frame rate : 1 200.000 FPS (40 SPF)
Bit depth : 24 bits
Compression mode : Lossless
Stream size : 3.09 GiB (13%)
Title : English
Language : English
Default : Yes
Forced : No
Original source medium : Blu-ray
Number of dynamic objects : 11
Bed channel count : 1 channel
Bed channel configuration : LFE

Audio #2
ID : 3
ID in the original source medium : 4353 (0x1101)
Format : DTS XLL
Format/Info : Digital Theater Systems
Commercial name : DTS-HD Master Audio
Codec ID : A_DTS
Duration : 1 h 44 min
Bit rate mode : Variable
Bit rate : 2 719 kb/s
Channel(s) : 8 channels
Channel layout : C L R LFE Lb Rb Lss Rss
Sampling rate : 48.0 kHz
Frame rate : 93.750 FPS (512 SPF)
Bit depth : 16 bits
Compression mode : Lossless
Stream size : 1.99 GiB (8%)
Title : Mandarin
Language : Chinese
Default : No
Forced : No
Original source medium : Blu-ray

Text #1
ID : 4
ID in the original source medium : 4770 (0x12A2)
Format : PGS
Muxing mode : zlib
Codec ID : S_HDMV/PGS
Codec ID/Info : Picture based subtitle format used on BDs/HD-DVDs
Duration : 1 h 39 min
Bit rate : 82.3 kb/s
Frame rate : 0.815 FPS
Count of elements : 4871
Stream size : 58.6 MiB (0%)
Title : CHS
Language : Chinese
Default : Yes
Forced : No
Original source medium : Blu-ray

Text #2
ID : 5
ID in the original source medium : 4771 (0x12A3)
Format : PGS
Muxing mode : zlib
Codec ID : S_HDMV/PGS
Codec ID/Info : Picture based subtitle format used on BDs/HD-DVDs
Duration : 1 h 38 min
Bit rate : 84.9 kb/s
Frame rate : 0.823 FPS
Count of elements : 4869
Stream size : 59.9 MiB (0%)
Title : CHT
Language : Chinese
Default : No
Forced : No
Original source medium : Blu-ray

Text #3
ID : 6
ID in the original source medium : 4772 (0x12A4)
Format : PGS
Muxing mode : zlib
Codec ID : S_HDMV/PGS
Codec ID/Info : Picture based subtitle format used on BDs/HD-DVDs
Duration : 1 h 38 min
Bit rate : 106 kb/s
Frame rate : 0.856 FPS
Count of elements : 5066
Stream size : 74.5 MiB (0%)
Title : CHS/ENG
Language : Chinese
Default : No
Forced : No
Original source medium : Blu-ray

Text #4
ID : 7
ID in the original source medium : 4773 (0x12A5)
Format : PGS
Muxing mode : zlib
Codec ID : S_HDMV/PGS
Codec ID/Info : Picture based subtitle format used on BDs/HD-DVDs
Duration : 1 h 38 min
Bit rate : 107 kb/s
Frame rate : 0.856 FPS
Count of elements : 5066
Stream size : 75.6 MiB (0%)
Title : CHT/ENG
Language : Chinese
Default : No
Forced : No
Original source medium : Blu-ray

Text #5
ID : 8
ID in the original source medium : 4768 (0x12A0)
Format : PGS
Muxing mode : zlib
Codec ID : S_HDMV/PGS
Codec ID/Info : Picture based subtitle format used on BDs/HD-DVDs
Duration : 1 h 37 min
Bit rate : 43.6 kb/s
Frame rate : 0.450 FPS
Count of elements : 2640
Stream size : 30.5 MiB (0%)
Title : ENG
Language : English
Default : No
Forced : No
Original source medium : Blu-ray

Menu
00:00:00.000 : en:Chapter 01
00:05:38.254 : en:Chapter 02
00:12:23.492 : en:Chapter 03
00:16:54.471 : en:Chapter 04
00:25:35.951 : en:Chapter 05
00:32:20.813 : en:Chapter 06
00:41:37.620 : en:Chapter 07
00:44:38.133 : en:Chapter 08
00:52:38.989 : en:Chapter 09
00:59:30.650 : en:Chapter 10
01:04:50.845 : en:Chapter 11
01:11:53.517 : en:Chapter 12
01:20:23.068 : en:Chapter 13
01:25:23.159 : en:Chapter 14
01:30:45.565 : en:Chapter 15
01:37:26.257 : en:Chapter 16


部分资源为软字幕,移动端推荐播放器:MxPlayer,nPlayer,infuse ,其他播放器请自行尝试。

部分资源为软字幕,电脑端推荐播放器:PotPlayer,完美解码,KMPLAYER,其他播放器请自行尝试。



1 个附件 售价 大小 下载 时间

The.Commuter.2018.Bluray.2160p.TrueHD7.1.HDR.x265.10bit-DreamHD[1LOU.ME].torrent 0 金币 62.91K 2240 次 2月前

#1楼
发帖时间:2023-12-06 21:50:02   |   回复数:1
feung18
武林盟主
感謝樓主辛苦 !
2月前 #2楼
游客组