Asuka601
隐世仙人♂

[2023] [欧美] [悬疑] [WEB-4K] 修女2[简繁英字幕].The.Nun.II.2023.2160p.UHD.BluRay.x265.10bit.HDR.TrueHD.7.1.Atmos-SONY

-->

完整标题:修女2[简繁英字幕].The.Nun.II.2023.2160p.UHD.BluRay.x265.10bit.HDR.TrueHD.7.1.Atmos-SONYHD 13.88GB



◎标  题 修女2
◎译  名 鬼修女Ⅱ(台) / 诡修女Ⅱ(港) / 鬼修女2 / 诡修女2
◎片  名 The Nun II
◎年  代 2023
◎产  地 美国
◎类  别 悬疑 / 惊悚 / 恐怖
◎语  言 英语
◎上映日期 2023-09-07(中国香港) / 2023-09-08(美国)
◎IMDb评分 5.6/10 (44659人评价)
◎IMDb链接 https://www.imdb.com/title/tt10160976/
◎豆瓣评分 5.7/10 (11234人评价)
◎豆瓣链接 https://movie.douban.com/subject/33406478/
◎片  长 109分钟
◎导  演 迈克尔·查维斯 Michael Chaves
◎编  剧 伊恩·戈德堡 Ian Goldberg
      理查德·纳英 Richard Naing
      阿克拉·库珀 Akela Cooper
      温子仁 James Wan
      加里·多伯曼 Gary Dauberman
◎演  员 泰莎·法米加 Taissa Farmiga
      乔纳斯·布洛凯 Jonas Bloquet
      斯托姆·瑞德 Storm Reid
      安娜·帕波维尔 Anna Popplewell
      邦妮·阿伦斯 Bonnie Aarons
      凯特琳·罗斯·道尼 Katelyn Rose Downey
      苏珊娜·伯蒂什 Suzanne Bertish
      莱昂廷·翁西厄 Léontine d'Oncieu
      阿努克·达尔文·霍梅伍德 Anouk Darwin Homewood
      彼得·哈德森 Peter Hudson
      塔玛尔·巴鲁克 Tamar Baruch
      娜塔莉·萨福兰 Natalia Safran
      马克西姆·伊莱亚斯-梅内特 Maxime Elias-Menet
      帕斯卡·欧贝 Pascal Aubert
      亚历山德拉·詹蒂尔 Alexandra Gentil
      弗洛伦斯·梅斯泰 Florence Mestais
      玛歌·波莱尔 Margaux Borel
      维维安娜·莫因 Viviana Moin
      雷纳塔·帕尔米涅洛 Renata Palminiello
      富尔维娅·帕特里齐亚·奥利维埃里 Fulvia Patrizia Olivieri
      玛格特·莫里斯 Margot Morris
      大卫·霍罗维奇 David Horovitch
      保罗·斯佩拉 Paul Spera
      凯特·科尔布鲁克 Kate Colebrook
      安德鲁·莫尔加多 Andrew Morgado
      艾伦-乔恩·诺斯 Aaron-Jon North
      帕特里克·威尔森 Patrick Wilson
      维拉·法米加 Vera Farmiga

◎简  介
    故事发生在1956年的法国,一名牧师惨遭谋杀,某种邪恶正在散播,艾琳修女(泰莎·法米加 Taissa Farmiga 饰)将再次与鬼修女瓦拉克(邦妮·阿伦斯 Bonnie Aarons 饰)展开正面对决。

##### MediaInfo ######
General
Unique ID : 241979152370617160327258643457104330695 (0xB60B7D52F06D8581077F4724E5EABFC7)
Complete name : The.Nun.II.2023.2160p.UHD.BluRay.x265.10bit.HDR.TrueHD.7.1.Atmos-SONYHD.mkv
Duration : 1 h 49 min
Overall bit rate mode : Variable
Overall bit rate : 18.1 Mb/s

Video
ID : 1
Format : HEVC
Format/Info : High Efficiency Video Coding
Format profile : Main [email protected]@High
HDR format : SMPTE ST 2086, HDR10 compatible
Codec ID : V_MPEGH/ISO/HEVC
Duration : 1 h 49 min
Bit rate : 15.2 Mb/s
Width : 3 840 pixels
Height : 1 604 pixels
Display aspect ratio : 2.40:1
Frame rate mode : Constant
Frame rate : 23.976 (24000/1001) FPS
Color space : YUV
Chroma subsampling : 4:2:0 (Type 2)
Bit depth : 10 bits
Bits/(Pixel*Frame) : 0.103
Stream size : 11.7 GiB (84%)
Writing library : x265 3.5g2b25c9ba0+45:[Windows][MSVC 1926][64 bit] Yuuki 10bit+8bit+12bit
Encoding settings : rc=crf / crf=17.1700 / qcomp=0.60 / qpstep=4 / stats-write=0 / stats-read=0 / vbv-maxrate=160000 / vbv-bufsize=160000 / vbv-init=0.9 / min-vbv-fullness=50.0 / max-vbv-fullness=80.0 / crf-max=0.0 / crf-min=0.0 / no-lossless / no-cu-lossless / aq-mode=3 / aq-strength=0.70 / cbqpoffs=0 / crqpoffs=0 / ipratio=1.40 / pbratio=1.30 / psy-rd=2.00 / psy-rdoq=2.00 / deblock=-3:-3 / ref=6 / limit-refs=1 / no-limit-modes / bframes=11 / b-adapt=2 / bframe-bias=0 / b-pyramid / b-intra / weightp / weightb / min-keyint=1 / max-keyint=240 / rc-lookahead=72 / gop-lookahead=0 / scenecut=40 / hist-scenecut=0 / radl=0 / max-cu-size=64 / min-cu-size=8 / me=3 / subme=6 / merange=48 / rdoq-level=2 / rd=4 / rdpenalty=0 / dynamic-rd=0.00 / no-rd-refine / ----- / no-cutree / no-sao / no-rect / no-amp / no-open-gop / wpp / no-pmode / no-pme / no-psnr / no-ssim / nr-intra=0 / nr-inter=0 / no-constrained-intra / no-strong-intra-smoothing / max-tu-size=32 / tu-inter-depth=4 / tu-intra-depth=4 / limit-tu=0 / qg-size=32 / qpmax=69 / qpmin=0 / ----- / cpuid=1111039 / frame-threads=4 / numa-pools=+ / log-level=2 / input-csp=1 / input-res=3840x1604 / interlace=0 / level-idc=51 / high-tier=1 / uhd-bd=0 / no-allow-non-conformance / repeat-headers / aud / no-hrd / info / hash=0 / no-temporal-layers / lookahead-slices=0 / no-splice / no-intra-refresh / no-ssim-rd / signhide / no-tskip / max-merge=5 / temporal-mvp / no-frame-dup / no-hme / analyze-src-pics / no-sao-non-deblock / selective-sao=0 / early-skip / rskip / no-fast-intra / no-tskip-fast / no-splitrd-skip / zone-count=0 / no-strict-cbr / no-rc-grain / no-const-vbv / sar=0 / overscan=0 / videoformat=5 / range=0 / colorprim=9 / transfer=16 / colormatrix=9 / chromaloc=1 / chromaloc-top=2 / chromaloc-bottom=2 / display-window=0 / master-display=G(13250,34500)B(7500,3000)R(34000,16000)WP(15635,16450)L(10000000,1) / cll=691,137 / min-luma=0 / max-luma=1023 / log2-max-poc-lsb=8 / vui-timing-info / vui-hrd-info / slices=1 / no-opt-qp-pps / no-opt-ref-list-length-pps / no-multi-pass-opt-rps / scenecut-bias=0.05 / hist-threshold=0.03 / no-opt-cu-delta-qp / no-aq-motion / hdr10 / hdr10-opt / no-dhdr10-opt / no-idr-recovery-sei / analysis-reuse-level=0 / analysis-save-reuse-level=0 / analysis-load-reuse-level=0 / scale-factor=0 / refine-intra=0 / refine-inter=0 / refine-mv=1 / refine-ctu-distortion=0 / no-limit-sao / ctu-info=0 / no-lowpass-dct / refine-analysis-type=0 / copy-pic=1 / max-ausize-factor=1.0 / no-dynamic-refine / no-single-sei / no-hevc-aq / no-svt / no-field / qp-adaptation-range=1.00 / scenecut-aware-qp=0conformance-window-offsets / right=0 / bottom=0 / decoder-max-rate=0 / no-vbv-live-multi-pass
Default : Yes
Forced : No
Color range : Limited
Color primaries : BT.2020
Transfer characteristics : PQ
Matrix coefficients : BT.2020 non-constant
Mastering display color primaries : Display P3
Mastering display luminance : min: 0.0001 cd/m2, max: 1000 cd/m2
Maximum Content Light Level : 691 cd/m2
Maximum Frame-Average Light Level : 137 cd/m2

Audio
ID : 2
ID in the original source medium : 4352 (0x1100)
Format : MLP FBA 16-ch
Format/Info : Meridian Lossless Packing FBA with 16-channel presentation
Commercial name : Dolby TrueHD with Dolby Atmos
Codec ID : A_TRUEHD
Duration : 1 h 49 min
Bit rate mode : Variable
Bit rate : 2 783 kb/s
Maximum bit rate : 4 557 kb/s
Channel(s) : 8 channels
Channel layout : L R C LFE Ls Rs Lb Rb
Sampling rate : 48.0 kHz
Frame rate : 1 200.000 FPS (40 SPF)
Compression mode : Lossless
Stream size : 2.13 GiB (15%)
Title : English
Language : English
Default : Yes
Forced : No
Original source medium : Blu-ray
Number of dynamic objects : 11
Bed channel count : 1 channel
Bed channel configuration : LFE

Text #1
ID : 3
ID in the original source medium : 4773 (0x12A5)
Format : PGS
Muxing mode : zlib
Codec ID : S_HDMV/PGS
Codec ID/Info : Picture based subtitle format used on BDs/HD-DVDs
Duration : 1 h 49 min
Bit rate : 20.7 kb/s
Frame rate : 0.182 FPS
Count of elements : 1194
Stream size : 16.2 MiB (0%)
Title : chs&eng
Language : Chinese
Default : Yes
Forced : No
Original source medium : Blu-ray

Text #2
ID : 4
ID in the original source medium : 4774 (0x12A6)
Format : PGS
Muxing mode : zlib
Codec ID : S_HDMV/PGS
Codec ID/Info : Picture based subtitle format used on BDs/HD-DVDs
Duration : 1 h 49 min
Bit rate : 20.8 kb/s
Frame rate : 0.182 FPS
Count of elements : 1194
Stream size : 16.3 MiB (0%)
Title : cht&eng
Language : Chinese
Default : No
Forced : No
Original source medium : Blu-ray

Text #3
ID : 5
ID in the original source medium : 4775 (0x12A7)
Format : PGS
Muxing mode : zlib
Codec ID : S_HDMV/PGS
Codec ID/Info : Picture based subtitle format used on BDs/HD-DVDs
Duration : 1 h 49 min
Bit rate : 11.6 kb/s
Frame rate : 0.182 FPS
Count of elements : 1193
Stream size : 9.11 MiB (0%)
Title : chs
Language : Chinese
Default : No
Forced : No
Original source medium : Blu-ray

Text #4
ID : 6
ID in the original source medium : 4776 (0x12A8)
Format : PGS
Muxing mode : zlib
Codec ID : S_HDMV/PGS
Codec ID/Info : Picture based subtitle format used on BDs/HD-DVDs
Duration : 1 h 49 min
Bit rate : 11.7 kb/s
Frame rate : 0.182 FPS
Count of elements : 1193
Stream size : 9.15 MiB (0%)
Title : cht
Language : Chinese
Default : No
Forced : No
Original source medium : Blu-ray

Text #5
ID : 7
ID in the original source medium : 4768 (0x12A0)
Format : PGS
Muxing mode : zlib
Codec ID : S_HDMV/PGS
Codec ID/Info : Picture based subtitle format used on BDs/HD-DVDs
Duration : 1 h 44 min
Bit rate : 20.9 kb/s
Frame rate : 0.326 FPS
Count of elements : 2036
Stream size : 15.5 MiB (0%)
Title : eng
Language : English
Default : No
Forced : No
Original source medium : Blu-ray

Menu
00:00:00.000 : en:Chapter 01
00:10:00.000 : en:Chapter 02
00:20:00.000 : en:Chapter 03
00:30:00.000 : en:Chapter 04
00:40:00.000 : en:Chapter 05
00:50:00.000 : en:Chapter 06
01:00:00.000 : en:Chapter 07
01:10:00.000 : en:Chapter 08
01:20:00.000 : en:Chapter 09
01:30:00.000 : en:Chapter 10
01:40:00.000 : en:Chapter 11


部分资源为软字幕,移动端推荐播放器:MxPlayer,nPlayer,infuse ,其他播放器请自行尝试。

部分资源为软字幕,电脑端推荐播放器:PotPlayer,完美解码,KMPLAYER,其他播放器请自行尝试。



1 个附件 售价 大小 下载 时间

The.Nun.II.2023.2160p.UHD.BluRay.x265.10bit.HDR.TrueHD.7.1.Atmos-SONYHD[1LOU.ME].torrent 0 金币 37.61K 1925 次 2月前

#1楼
发帖时间:2023-12-06 11:55:25   |   回复数:0
游客组