Asuka601
隐世仙人♂

[更 早] [香港] [动作] [BD-1080P] 霸王花[国粤多音轨/中文字幕].The.Inspector.Wears.Skirts.1988.Bluray.1080p.TrueHD7.1.x264-Drea

-->

完整标题:霸王花[国粤多音轨/中文字幕].The.Inspector.Wears.Skirts.1988.Bluray.1080p.TrueHD7.1.x264-DreamHD 12.46GB



◎标  题 霸王花
◎译  名 霸王花与霸王花 / Lady Enforcers / The Inspector Wears Skirts
◎年  代 1988
◎产  地 中国香港
◎类  别 动作
◎语  言 粤语
◎上映日期 1988-06-03(中国香港)
◎IMDb评分 5.9/10 (642人评价)
◎IMDb链接 https://www.imdb.com/title/tt0094694/
◎豆瓣评分 6.9/10 (17979人评价)
◎豆瓣链接 https://movie.douban.com/subject/1408315/
◎片  长 91分钟
◎导  演 钱升玮 Wellson Chin
◎编  剧 郑锦富 Kam Fu Cheng
      邝文伟 Abe Kwong
◎演  员 胡慧中 Sibelle Hu
      惠英红 Kara Wai Ying Hung
      罗芙洛 Cynthia Rothrock
      柏安妮 Ann Bridgewater
      杜德伟 Alex To
      吴君如 Sandra Ng
      陈雅伦 Ellen Chan
      简慧真 Regina Kent
      丁宁 Ning Ding
      陈佩珊 Joanna Chan Pui-San
      冯淬帆 Stanley Fung
      楼南光 Billy Lau
      董骠 Bill Tung
      周文健 Michael Chow Man-Kin
      成奎安 Fui-On Shing
      许冠英 Ricky Hui
      杰弗里·福尔肯 Jeffrey Falcon
      黎明诗 Ming-Si Lai
      方茹 Ju Fang
      张旭燊 Yuk-San Cheung
      李华干 Wah-Kon Lee
      贾仕峰 Anthony Carpio
      卢惠光 Ken Lo
      火星 Mars

◎简  介
    香港以前本来没有女子特警队,但因为Madam胡(胡慧中 饰)和Madam罗(罗芙洛 饰)两名女警长的出色表现,令到警局高层决定以她们为班底,组建有史以来第一支女子特警队——霸王花。Madam胡和Madam罗分别担任队长带队训练。女子特警队的训练一点也不比飞虎队轻松,在两人的严格训练下,霸王花很快就能出动执行任务了。岂料在和飞虎队一起执行一次保护珠宝任务时,Madam胡领军的霸王花被飞虎队均被国际大盗制伏。紧要关头,Madam罗率队赶到!

点击图片可查看大图

软字幕无法在截图上展现,HDR版本/杜比视界版本截图会出现颜色异常,请使用支持的设备播放!

##### MediaInfo ######
General
Unique ID : 325089395386910466749233986517597114861 (0xF491F0AB900E025668F6A6125C6F51ED)
Complete name : The.Inspector.Wears.Skirts.1988.Bluray.1080p.TrueHD7.1.x264-DreamHD.mkv
Duration : 1 h 35 min
Overall bit rate mode : Variable
Overall bit rate : 18.6 Mb/s

Video
ID : 1
Format : AVC
Format/Info : Advanced Video Codec
Format profile : [email protected]
Format settings : CABAC / 4 Ref Frames
Format settings, CABAC : Yes
Format settings, Reference frames : 4 frames
Codec ID : V_MPEG4/ISO/AVC
Duration : 1 h 35 min
Bit rate : 14.2 Mb/s
Width : 1 920 pixels
Height : 1 036 pixels
Display aspect ratio : 1.85:1
Frame rate mode : Constant
Frame rate : 23.976 (24000/1001) FPS
Color space : YUV
Chroma subsampling : 4:2:0
Bit depth : 8 bits
Scan type : Progressive
Bits/(Pixel*Frame) : 0.297
Stream size : 9.49 GiB (76%)
Writing library : x264 core 164 r3094 bfc87b7
Encoding settings : cabac=1 / ref=4 / deblock=1:-3:-3 / analyse=0x3:0x133 / me=umh / subme=11 / psy=1 / psy_rd=1.00:0.00 / mixed_ref=1 / me_range=64 / chroma_me=1 / trellis=2 / 8x8dct=1 / cqm=0 / deadzone=21,11 / fast_pskip=0 / chroma_qp_offset=-2 / threads=32 / lookahead_threads=8 / sliced_threads=0 / nr=0 / decimate=0 / interlaced=0 / bluray_compat=0 / constrained_intra=0 / bframes=12 / b_pyramid=2 / b_adapt=2 / b_bias=0 / direct=3 / weightb=1 / open_gop=0 / weightp=2 / keyint=250 / keyint_min=23 / scenecut=40 / intra_refresh=0 / rc=crf / mbtree=0 / crf=16.5 / qcomp=0.70 / qpmin=0 / qpmax=69 / qpstep=4 / ip_ratio=1.30 / pb_ratio=1.20 / aq=3:0.80
Default : Yes
Forced : No
Color range : Limited
Color primaries : BT.709
Matrix coefficients : BT.709

Audio #1
ID : 2
ID in the original source medium : 4355 (0x1103)
Format : MLP FBA
Format/Info : Meridian Lossless Packing FBA
Commercial name : Dolby TrueHD
Codec ID : A_TRUEHD
Duration : 1 h 35 min
Bit rate mode : Variable
Bit rate : 3 731 kb/s
Maximum bit rate : 5 280 kb/s
Channel(s) : 8 channels
Channel layout : L R C LFE Ls Rs Lb Rb
Sampling rate : 48.0 kHz
Frame rate : 1 200.000 FPS (40 SPF)
Bit depth : 24 bits
Compression mode : Lossless
Delay relative to video : 34 s 998 ms
Stream size : 2.48 GiB (20%)
Title : Cantonese
Language : Chinese
Default : Yes
Forced : No
Original source medium : Blu-ray

Audio #2
ID : 3
ID in the original source medium : 4356 (0x1104)
Format : AC-3
Format/Info : Audio Coding 3
Commercial name : Dolby Digital
Format settings : Dolby Surround EX
Codec ID : A_AC3
Duration : 1 h 35 min
Bit rate mode : Constant
Bit rate : 640 kb/s
Channel(s) : 6 channels
Channel layout : L R C LFE Ls Rs
Sampling rate : 48.0 kHz
Frame rate : 31.250 FPS (1536 SPF)
Compression mode : Lossy
Delay relative to video : 34 s 998 ms
Stream size : 435 MiB (3%)
Title : Mandarin
Language : Chinese
Service kind : Complete Main
Default : No
Forced : No
Original source medium : Blu-ray

Text #1
ID : 4
ID in the original source medium : 4610 (0x1202)
Format : PGS
Muxing mode : zlib
Codec ID : S_HDMV/PGS
Codec ID/Info : Picture based subtitle format used on BDs/HD-DVDs
Duration : 1 h 32 min
Bit rate : 49.5 kb/s
Frame rate : 0.455 FPS
Count of elements : 2535
Stream size : 32.9 MiB (0%)
Title : CHT
Language : Chinese
Default : No
Forced : No
Original source medium : Blu-ray

Text #2
ID : 5
ID in the original source medium : 4608 (0x1200)
Format : PGS
Muxing mode : zlib
Codec ID : S_HDMV/PGS
Codec ID/Info : Picture based subtitle format used on BDs/HD-DVDs
Duration : 1 h 32 min
Bit rate : 42.1 kb/s
Frame rate : 0.419 FPS
Count of elements : 2336
Stream size : 28.0 MiB (0%)
Title : ENG
Language : English
Default : No
Forced : No
Original source medium : Blu-ray

Menu
00:00:00.000 : en:Chapter 01
00:08:43.064 : en:Chapter 02
00:17:42.603 : en:Chapter 03
00:27:58.385 : en:Chapter 04
00:37:48.599 : en:Chapter 05
00:45:15.003 : en:Chapter 06
00:54:10.538 : en:Chapter 07
01:05:11.449 : en:Chapter 08
01:15:06.752 : en:Chapter 09
01:25:19.531 : en:Chapter 10
01:34:19.111 : en:Chapter 11


部分资源为软字幕,移动端推荐播放器:MxPlayer,nPlayer,infuse ,其他播放器请自行尝试。

部分资源为软字幕,电脑端推荐播放器:PotPlayer,完美解码,KMPLAYER,其他播放器请自行尝试。



1 个附件 售价 大小 下载 时间

The.Inspector.Wears.Skirts.1988.Bluray.1080p.TrueHD7.1.x264-DreamHD[1LOU.ME].torrent 0 金币 34.15K 1589 次 2月前

#1楼
发帖时间:2023-12-06 11:54:21   |   回复数:0
游客组