Asuka601
隐世仙人♂

[更 早] [欧美] [剧情] [BD-1080P] 沉默中爆发[简繁英字幕].Blast.of.Silence.1961.CC.V2.1080p.BluRay.x265.10bit.FLAC.1.0-SONYHD

-->

完整标题:沉默中爆发[简繁英字幕].Blast.of.Silence.1961.CC.V2.1080p.BluRay.x265.10bit.FLAC.1.0-SONYHD 5.09GB



◎标  题 沉默中爆发
◎译  名 沉默的爆发 / Baby Boy Frankie
◎片  名 Blast of Silence
◎年  代 1961
◎产  地 美国
◎类  别 剧情 / 惊悚 / 犯罪 / 黑色电影
◎语  言 英语
◎上映日期 1961-04(美国)
◎IMDb评分 7.5/10 (4995人评价)
◎IMDb链接 https://www.imdb.com/title/tt0054687/
◎豆瓣评分 7.6/10 (590人评价)
◎豆瓣链接 https://movie.douban.com/subject/2382777/
◎片  长 77分钟
◎导  演 艾伦·巴隆 Allen Baron
◎编  剧 艾伦·巴隆 Allen Baron
      瓦尔度·绍特 Waldo Salt
◎演  员 艾伦·巴隆 Allen Baron
      莫莉·麦卡锡 Molly McCarthy
      拉里·塔克 Larry Tucker
      莱昂内尔·斯坦德 Lionel Stander
      Don Saroyan Don Saroyan
      吉尔·罗杰斯 Gil Rogers
      霍华德·曼 Howard Mann
      Jerry Douglas Jerry Douglas
      丹尼·米汉 Danny Meehan

◎简  介
    出身于克利夫兰的杀手弗兰克(Allen Baron 饰)在圣诞前夕接到了一份新的工作,他再次孤身一人回到曾经熟悉的城市,这次的目标是二流企业的老板。弗兰克每日跟踪对方,寻找下手机会并托付别人准备手枪。沉默寡言的弗兰克拒绝与别人沟通,在饭店偶遇的熟人让他只想逃避,但旧日相识劳拉的出现点燃了他仅存的一点热情,不过弗兰克却无法让对方接受自己。联系人迟迟没能提供手枪让弗兰克一怒之下杀了他。惊慌失措的弗兰克致电雇主,试图终止合作,电话另一头却大为光火,将弗兰克推上了不归路……   这部电影始终贯穿画外音解说,是导演、编剧兼主演Allen Baron的新尝试。

##### MediaInfo ######
General
Unique ID : 43013622049301355509305584805528303651 (0x205C1F4D39F18347AB63C9C2B4F97823)
Complete name : Blast.of.Silence.1961.CC.V2.1080p.BluRay.x265.10bit.FLAC.1.0-SONYHD.mkv
Duration : 1 h 17 min
Overall bit rate mode : Variable
Overall bit rate : 9 380 kb/s

Video
ID : 1
Format : HEVC
Format/Info : High Efficiency Video Coding
Format profile : Main 10@L5@Main
Codec ID : V_MPEGH/ISO/HEVC
Duration : 1 h 17 min
Bit rate : 9 058 kb/s
Width : 1 920 pixels
Height : 1 036 pixels
Display aspect ratio : 1.85:1
Frame rate mode : Constant
Frame rate : 23.976 (24000/1001) FPS
Color space : YUV
Chroma subsampling : 4:2:0
Bit depth : 10 bits
Bits/(Pixel*Frame) : 0.190
Stream size : 4.92 GiB (97%)
Writing library : x265 3.5g2b25c9ba0+45:[Windows][GCC 10.2.0][64 bit] Yuuki 10bit+8bit+12bit
Encoding settings : rc=crf / crf=19.5000 / qcomp=0.60 / qpstep=4 / stats-write=0 / stats-read=0 / no-lossless / no-cu-lossless / aq-mode=3 / aq-strength=0.80 / cbqpoffs=0 / crqpoffs=0 / ipratio=1.40 / pbratio=1.30 / psy-rd=2.00 / psy-rdoq=0.00 / deblock=0:0 / ref=6 / limit-refs=1 / no-limit-modes / bframes=8 / b-adapt=2 / bframe-bias=0 / b-pyramid / b-intra / weightp / weightb / min-keyint=24 / max-keyint=240 / rc-lookahead=24 / gop-lookahead=0 / scenecut=40 / hist-scenecut=0 / radl=0 / max-cu-size=64 / min-cu-size=8 / me=3 / subme=7 / merange=48 / rdoq-level=0 / rd=4 / rdpenalty=0 / dynamic-rd=0.00 / no-rd-refine / ----- / cutree / sao / no-rect / no-amp / no-open-gop / wpp / no-pmode / no-pme / no-psnr / no-ssim / nr-intra=0 / nr-inter=0 / no-constrained-intra / no-strong-intra-smoothing / max-tu-size=32 / tu-inter-depth=1 / tu-intra-depth=1 / limit-tu=0 / qg-size=32 / qpmax=69 / qpmin=0 / ----- / cpuid=1111039 / frame-threads=5 / numa-pools=+ / log-level=2 / input-csp=1 / input-res=1920x1036 / interlace=0 / level-idc=0 / high-tier=1 / uhd-bd=0 / no-allow-non-conformance / no-repeat-headers / aud / no-hrd / info / hash=0 / no-temporal-layers / lookahead-slices=0 / no-splice / no-intra-refresh / no-ssim-rd / signhide / no-tskip / max-merge=3 / temporal-mvp / no-frame-dup / no-hme / no-analyze-src-pics / no-sao-non-deblock / selective-sao=4 / early-skip / rskip / no-fast-intra / no-tskip-fast / no-splitrd-skip / zone-count=0 / no-strict-cbr / no-rc-grain / no-const-vbv / sar=0 / overscan=0 / videoformat=5 / range=0 / colorprim=2 / transfer=2 / colormatrix=2 / chromaloc=0 / display-window=0 / cll=0,0 / min-luma=0 / max-luma=1023 / log2-max-poc-lsb=8 / vui-timing-info / vui-hrd-info / slices=1 / no-opt-qp-pps / no-opt-ref-list-length-pps / no-multi-pass-opt-rps / scenecut-bias=0.05 / hist-threshold=0.03 / no-opt-cu-delta-qp / no-aq-motion / no-hdr10 / no-hdr10-opt / no-dhdr10-opt / no-idr-recovery-sei / analysis-reuse-level=0 / analysis-save-reuse-level=0 / analysis-load-reuse-level=0 / scale-factor=0 / refine-intra=0 / refine-inter=0 / refine-mv=1 / refine-ctu-distortion=0 / no-limit-sao / ctu-info=0 / no-lowpass-dct / refine-analysis-type=0 / copy-pic=1 / max-ausize-factor=1.0 / no-dynamic-refine / no-single-sei / no-hevc-aq / no-svt / no-field / qp-adaptation-range=1.00 / scenecut-aware-qp=0conformance-window-offsets / right=0 / bottom=0 / decoder-max-rate=0 / no-vbv-live-multi-pass
Language : English
Default : Yes
Forced : No

Audio
ID : 2
Format : FLAC
Format/Info : Free Lossless Audio Codec
Codec ID : A_FLAC
Duration : 1 h 17 min
Bit rate mode : Variable
Bit rate : 247 kb/s
Channel(s) : 1 channel
Channel layout : C
Sampling rate : 48.0 kHz
Frame rate : 11.719 FPS (4096 SPF)
Bit depth : 16 bits
Compression mode : Lossless
Stream size : 137 MiB (3%)
Writing library : libFLAC 1.2.1 (UTC 2007-09-17)
Language : English
Default : Yes
Forced : No

Text #1
ID : 3
ID in the original source medium : 4609 (0x1201)
Format : PGS
Muxing mode : zlib
Codec ID : S_HDMV/PGS
Codec ID/Info : Picture based subtitle format used on BDs/HD-DVDs
Duration : 1 h 17 min
Bit rate : 39.2 kb/s
Frame rate : 0.318 FPS
Count of elements : 1472
Stream size : 21.7 MiB (0%)
Title : chs&eng
Language : Chinese
Default : Yes
Forced : No
Original source medium : Blu-ray

Text #2
ID : 4
ID in the original source medium : 4610 (0x1202)
Format : PGS
Muxing mode : zlib
Codec ID : S_HDMV/PGS
Codec ID/Info : Picture based subtitle format used on BDs/HD-DVDs
Duration : 1 h 17 min
Bit rate : 39.6 kb/s
Frame rate : 0.318 FPS
Count of elements : 1472
Stream size : 21.9 MiB (0%)
Title : cht&eng
Language : Chinese
Default : No
Forced : No
Original source medium : Blu-ray

Text #3
ID : 5
ID in the original source medium : 4611 (0x1203)
Format : PGS
Muxing mode : zlib
Codec ID : S_HDMV/PGS
Codec ID/Info : Picture based subtitle format used on BDs/HD-DVDs
Duration : 1 h 17 min
Bit rate : 23.8 kb/s
Frame rate : 0.318 FPS
Count of elements : 1472
Stream size : 13.1 MiB (0%)
Title : chs
Language : Chinese
Default : No
Forced : No
Original source medium : Blu-ray

Text #4
ID : 6
ID in the original source medium : 4612 (0x1204)
Format : PGS
Muxing mode : zlib
Codec ID : S_HDMV/PGS
Codec ID/Info : Picture based subtitle format used on BDs/HD-DVDs
Duration : 1 h 17 min
Bit rate : 24.1 kb/s
Frame rate : 0.318 FPS
Count of elements : 1472
Stream size : 13.3 MiB (0%)
Title : cht
Language : Chinese
Default : No
Forced : No
Original source medium : Blu-ray

Text #5
ID : 7
ID in the original source medium : 4608 (0x1200)
Format : PGS
Muxing mode : zlib
Codec ID : S_HDMV/PGS
Codec ID/Info : Picture based subtitle format used on BDs/HD-DVDs
Duration : 1 h 16 min
Bit rate : 31.6 kb/s
Frame rate : 0.360 FPS
Count of elements : 1660
Stream size : 17.3 MiB (0%)
Title : eng
Language : English
Default : No
Forced : No
Original source medium : Blu-ray

Menu
00:00:00.000 : en:Chapter 01
00:04:10.291 : en:Chapter 02
00:06:31.015 : en:Chapter 03
00:09:23.980 : en:Chapter 04
00:15:15.164 : en:Chapter 05
00:21:17.734 : en:Chapter 06
00:24:17.414 : en:Chapter 07
00:27:22.807 : en:Chapter 08
00:34:09.630 : en:Chapter 09
00:42:45.771 : en:Chapter 10
00:48:25.027 : en:Chapter 11
00:54:08.954 : en:Chapter 12
01:01:42.156 : en:Chapter 13
01:08:05.414 : en:Chapter 14
01:13:41.333 : en:Chapter 15


部分资源为软字幕,移动端推荐播放器:MxPlayer,nPlayer,infuse ,其他播放器请自行尝试。

部分资源为软字幕,电脑端推荐播放器:PotPlayer,完美解码,KMPLAYER,其他播放器请自行尝试。



1 个附件 售价 大小 下载 时间

Blast.of.Silence.1961.CC.V2.1080p.BluRay.x265.10bit.FLAC.1.0-SONYHD[1LOU.ME].torrent 0 金币 15.63K 1155 次 2月前

#1楼
发帖时间:2023-12-06 11:50:03   |   回复数:0
游客组