Asuka601
隐世仙人♂

[更 早] [欧美] [剧情] [BD-1080P] 沉默中爆发[简繁英字幕].Blast.of.Silence.1961.CC.V2.1080p.BluRay.x264.FLAC.1.0-SONYHD 8.55G

-->

完整标题:沉默中爆发[简繁英字幕].Blast.of.Silence.1961.CC.V2.1080p.BluRay.x264.FLAC.1.0-SONYHD 8.55GB



◎标  题 沉默中爆发
◎译  名 沉默的爆发 / Baby Boy Frankie
◎片  名 Blast of Silence
◎年  代 1961
◎产  地 美国
◎类  别 剧情 / 惊悚 / 犯罪 / 黑色电影
◎语  言 英语
◎上映日期 1961-04(美国)
◎IMDb评分 7.5/10 (4995人评价)
◎IMDb链接 https://www.imdb.com/title/tt0054687/
◎豆瓣评分 7.6/10 (590人评价)
◎豆瓣链接 https://movie.douban.com/subject/2382777/
◎片  长 77分钟
◎导  演 艾伦·巴隆 Allen Baron
◎编  剧 艾伦·巴隆 Allen Baron
      瓦尔度·绍特 Waldo Salt
◎演  员 艾伦·巴隆 Allen Baron
      莫莉·麦卡锡 Molly McCarthy
      拉里·塔克 Larry Tucker
      莱昂内尔·斯坦德 Lionel Stander
      Don Saroyan Don Saroyan
      吉尔·罗杰斯 Gil Rogers
      霍华德·曼 Howard Mann
      Jerry Douglas Jerry Douglas
      丹尼·米汉 Danny Meehan

◎简  介
    出身于克利夫兰的杀手弗兰克(Allen Baron 饰)在圣诞前夕接到了一份新的工作,他再次孤身一人回到曾经熟悉的城市,这次的目标是二流企业的老板。弗兰克每日跟踪对方,寻找下手机会并托付别人准备手枪。沉默寡言的弗兰克拒绝与别人沟通,在饭店偶遇的熟人让他只想逃避,但旧日相识劳拉的出现点燃了他仅存的一点热情,不过弗兰克却无法让对方接受自己。联系人迟迟没能提供手枪让弗兰克一怒之下杀了他。惊慌失措的弗兰克致电雇主,试图终止合作,电话另一头却大为光火,将弗兰克推上了不归路……   这部电影始终贯穿画外音解说,是导演、编剧兼主演Allen Baron的新尝试。

##### MediaInfo ######
General
Unique ID : 180061818590545028572626197850764585128 (0x8776A51358632EDA2B808013F3DFA8A8)
Complete name : Blast.of.Silence.1961.CC.V2.1080p.BluRay.x264.FLAC.1.0-SONYHD.mkv
Duration : 1 h 17 min
Overall bit rate mode : Variable
Overall bit rate : 15.8 Mb/s

Video
ID : 1
Format : AVC
Format/Info : Advanced Video Codec
Format profile : [email protected]
Format settings : CABAC / 4 Ref Frames
Format settings, CABAC : Yes
Format settings, Reference frames : 4 frames
Codec ID : V_MPEG4/ISO/AVC
Duration : 1 h 17 min
Bit rate : 15.4 Mb/s
Width : 1 920 pixels
Height : 1 036 pixels
Display aspect ratio : 1.85:1
Frame rate mode : Constant
Frame rate : 23.976 (24000/1001) FPS
Color space : YUV
Chroma subsampling : 4:2:0
Bit depth : 8 bits
Scan type : Progressive
Bits/(Pixel*Frame) : 0.324
Stream size : 8.38 GiB (98%)
Writing library : x264 core 164 r3107+55M 1028c06 t_mod_New [(8 & 10)-bit@all X86_64]
Encoding settings : cabac=1 / ref=4 / deblock=1:-3:-3 / analyse=0x3:0x133 / me=umh / subme=11 / psy=1 / fade_compensate=0.00 / psy_rd=1.00:0.00 / mixed_ref=1 / me_range=48 / chroma_me=1 / trellis=2 / 8x8dct=1 / cqm=0 / deadzone=21,11 / fast_pskip=0 / chroma_qp_offset=-3 / threads=32 / lookahead_threads=8 / sliced_threads=0 / nr=0 / decimate=0 / interlaced=0 / bluray_compat=0 / constrained_intra=0 / fgo=0 / bframes=11 / b_pyramid=2 / b_adapt=2 / b_bias=0 / direct=3 / weightb=1 / open_gop=0 / weightp=2 / keyint=240 / keyint_min=1 / scenecut=40 / intra_refresh=0 / rc_lookahead=72 / rc=crf / mbtree=0 / crf=19.5000 / qcomp=0.60 / qpmin=0:0:0 / qpmax=69:69:69 / qpstep=4 / vbv_maxrate=62500 / vbv_bufsize=78125 / crf_max=0.0 / nal_hrd=none / filler=0 / ip_ratio=1.40 / pb_ratio=1.30 / aq=3:0.80 / aq-sensitivity=10.00 / aq-factor=1.00:1.00:1.00 / aq2=0 / aq3=0
Language : English
Default : Yes
Forced : No

Audio
ID : 2
Format : FLAC
Format/Info : Free Lossless Audio Codec
Codec ID : A_FLAC
Duration : 1 h 17 min
Bit rate mode : Variable
Bit rate : 247 kb/s
Channel(s) : 1 channel
Channel layout : C
Sampling rate : 48.0 kHz
Frame rate : 11.719 FPS (4096 SPF)
Bit depth : 16 bits
Compression mode : Lossless
Stream size : 137 MiB (2%)
Writing library : libFLAC 1.2.1 (UTC 2007-09-17)
Language : English
Default : Yes
Forced : No

Text #1
ID : 3
ID in the original source medium : 4609 (0x1201)
Format : PGS
Muxing mode : zlib
Codec ID : S_HDMV/PGS
Codec ID/Info : Picture based subtitle format used on BDs/HD-DVDs
Duration : 1 h 17 min
Bit rate : 39.2 kb/s
Frame rate : 0.318 FPS
Count of elements : 1472
Stream size : 21.7 MiB (0%)
Title : chs&eng
Language : Chinese
Default : Yes
Forced : No
Original source medium : Blu-ray

Text #2
ID : 4
ID in the original source medium : 4610 (0x1202)
Format : PGS
Muxing mode : zlib
Codec ID : S_HDMV/PGS
Codec ID/Info : Picture based subtitle format used on BDs/HD-DVDs
Duration : 1 h 17 min
Bit rate : 39.6 kb/s
Frame rate : 0.318 FPS
Count of elements : 1472
Stream size : 21.9 MiB (0%)
Title : cht&eng
Language : Chinese
Default : No
Forced : No
Original source medium : Blu-ray

Text #3
ID : 5
ID in the original source medium : 4611 (0x1203)
Format : PGS
Muxing mode : zlib
Codec ID : S_HDMV/PGS
Codec ID/Info : Picture based subtitle format used on BDs/HD-DVDs
Duration : 1 h 17 min
Bit rate : 23.8 kb/s
Frame rate : 0.318 FPS
Count of elements : 1472
Stream size : 13.1 MiB (0%)
Title : chs
Language : Chinese
Default : No
Forced : No
Original source medium : Blu-ray

Text #4
ID : 6
ID in the original source medium : 4612 (0x1204)
Format : PGS
Muxing mode : zlib
Codec ID : S_HDMV/PGS
Codec ID/Info : Picture based subtitle format used on BDs/HD-DVDs
Duration : 1 h 17 min
Bit rate : 24.1 kb/s
Frame rate : 0.318 FPS
Count of elements : 1472
Stream size : 13.3 MiB (0%)
Title : cht
Language : Chinese
Default : No
Forced : No
Original source medium : Blu-ray

Text #5
ID : 7
ID in the original source medium : 4608 (0x1200)
Format : PGS
Muxing mode : zlib
Codec ID : S_HDMV/PGS
Codec ID/Info : Picture based subtitle format used on BDs/HD-DVDs
Duration : 1 h 16 min
Bit rate : 31.6 kb/s
Frame rate : 0.360 FPS
Count of elements : 1660
Stream size : 17.3 MiB (0%)
Title : eng
Language : English
Default : No
Forced : No
Original source medium : Blu-ray

Menu
00:00:00.000 : en:Chapter 01
00:04:10.291 : en:Chapter 02
00:06:31.015 : en:Chapter 03
00:09:23.980 : en:Chapter 04
00:15:15.164 : en:Chapter 05
00:21:17.734 : en:Chapter 06
00:24:17.414 : en:Chapter 07
00:27:22.807 : en:Chapter 08
00:34:09.630 : en:Chapter 09
00:42:45.771 : en:Chapter 10
00:48:25.027 : en:Chapter 11
00:54:08.954 : en:Chapter 12
01:01:42.156 : en:Chapter 13
01:08:05.414 : en:Chapter 14
01:13:41.333 : en:Chapter 15


部分资源为软字幕,移动端推荐播放器:MxPlayer,nPlayer,infuse ,其他播放器请自行尝试。

部分资源为软字幕,电脑端推荐播放器:PotPlayer,完美解码,KMPLAYER,其他播放器请自行尝试。



1 个附件 售价 大小 下载 时间

Blast.of.Silence.1961.CC.V2.1080p.BluRay.x264.FLAC.1.0-SONYHD[1LOU.ME].torrent 0 金币 24.27K 889 次 2月前

#1楼
发帖时间:2023-12-06 11:49:30   |   回复数:0
游客组