lvchao9947
一代宗师

[更 早] [其它] [剧情] [BD-1080P] 驴子巴特萨[简繁英字幕].Au.hasard.Balthazar.1966.CC.1080p.BluRay.x265.10bit.FLAC.1.0-SONYHD

-->

完整标题:驴子巴特萨[简繁英字幕].Au.hasard.Balthazar.1966.CC.1080p.BluRay.x265.10bit.FLAC.1.0-SONYHD 7.88GB



◎标  题 驴子巴特萨
◎译  名 巴尔塔扎尔的遭遇 / 驴子巴勒达扎 / 偶尔巴尔塔扎尔 / Balthazar
◎片  名 Au hasard Balthazar
◎年  代 1966
◎产  地 法国 / 瑞典
◎类  别 剧情
◎语  言 法语 / 拉丁语
◎上映日期 1966-05-15(戛纳电影节) / 1966-05-25(法国)
◎IMDb评分 7.8/10 (21924人评价)
◎IMDb链接 https://www.imdb.com/title/tt0060138/
◎豆瓣评分 8.3/10 (8556人评价)
◎豆瓣链接 https://movie.douban.com/subject/1401619/
◎片  长 95分钟
◎导  演 罗伯特·布列松 Robert Bresson
◎编  剧 罗伯特·布列松 Robert Bresson
◎演  员 安妮·维亚泽姆斯基 Anne Wiazemsky
      Jean-Claude Guilbert Jean-Claude Guilbert
      皮埃尔·克罗索斯基 Pierre Klossowski
      弗朗斯·阿瑟兰 France Asselin

◎简  介
    电影史上极其异类的电影.   全片的主角竟是一头驴。透过驴的眼睛,冷冷地注视着这个世界。驴在不同人的手中被虐待、被贩卖,最终被杀,透露出来的却是同样的主题。

##### MediaInfo ######
General
Unique ID : 93649916320639260501475471581617584556 (0x4674515C337E2ACE1D10F20CF34FF9AC)
Complete name : Au.hasard.Balthazar.1966.CC.1080p.BluRay.x265.10bit.FLAC.1.0-SONYHD.mkv
Duration : 1 h 35 min
Overall bit rate mode : Variable
Overall bit rate : 11.8 Mb/s

Video
ID : 1
Format : HEVC
Format/Info : High Efficiency Video Coding
Format profile : Main 10@L5@Main
Codec ID : V_MPEGH/ISO/HEVC
Duration : 1 h 35 min
Bit rate : 11.5 Mb/s
Width : 1 792 pixels
Height : 1 080 pixels
Display aspect ratio : 5:3
Frame rate mode : Constant
Frame rate : 23.976 (24000/1001) FPS
Color space : YUV
Chroma subsampling : 4:2:0
Bit depth : 10 bits
Bits/(Pixel*Frame) : 0.248
Stream size : 7.72 GiB (98%)
Writing library : x265 3.5g2b25c9ba0+45:[Windows][GCC 10.2.0][64 bit] Yuuki 10bit+8bit+12bit
Encoding settings : rc=crf / crf=21.0000 / qcomp=0.60 / qpstep=4 / stats-write=0 / stats-read=0 / no-lossless / no-cu-lossless / aq-mode=3 / aq-strength=0.90 / cbqpoffs=0 / crqpoffs=0 / ipratio=1.40 / pbratio=1.30 / psy-rd=2.00 / psy-rdoq=0.00 / deblock=0:0 / ref=6 / limit-refs=1 / no-limit-modes / bframes=8 / b-adapt=2 / bframe-bias=0 / b-pyramid / b-intra / weightp / weightb / min-keyint=24 / max-keyint=240 / rc-lookahead=24 / gop-lookahead=0 / scenecut=40 / hist-scenecut=0 / radl=0 / max-cu-size=64 / min-cu-size=8 / me=3 / subme=7 / merange=48 / rdoq-level=0 / rd=4 / rdpenalty=0 / dynamic-rd=0.00 / no-rd-refine / ----- / cutree / sao / no-rect / no-amp / no-open-gop / wpp / no-pmode / no-pme / no-psnr / no-ssim / nr-intra=0 / nr-inter=0 / no-constrained-intra / no-strong-intra-smoothing / max-tu-size=32 / tu-inter-depth=1 / tu-intra-depth=1 / limit-tu=0 / qg-size=32 / qpmax=69 / qpmin=0 / ----- / cpuid=1111039 / frame-threads=4 / numa-pools=+ / log-level=2 / input-csp=1 / input-res=1792x1080 / interlace=0 / level-idc=0 / high-tier=1 / uhd-bd=0 / no-allow-non-conformance / no-repeat-headers / aud / no-hrd / info / hash=0 / no-temporal-layers / lookahead-slices=0 / no-splice / no-intra-refresh / no-ssim-rd / signhide / no-tskip / max-merge=3 / temporal-mvp / no-frame-dup / no-hme / no-analyze-src-pics / no-sao-non-deblock / selective-sao=4 / early-skip / rskip / no-fast-intra / no-tskip-fast / no-splitrd-skip / zone-count=0 / no-strict-cbr / no-rc-grain / no-const-vbv / sar=0 / overscan=0 / videoformat=5 / range=0 / colorprim=2 / transfer=2 / colormatrix=2 / chromaloc=0 / display-window=0 / cll=0,0 / min-luma=0 / max-luma=1023 / log2-max-poc-lsb=8 / vui-timing-info / vui-hrd-info / slices=1 / no-opt-qp-pps / no-opt-ref-list-length-pps / no-multi-pass-opt-rps / scenecut-bias=0.05 / hist-threshold=0.03 / no-opt-cu-delta-qp / no-aq-motion / no-hdr10 / no-hdr10-opt / no-dhdr10-opt / no-idr-recovery-sei / analysis-reuse-level=0 / analysis-save-reuse-level=0 / analysis-load-reuse-level=0 / scale-factor=0 / refine-intra=0 / refine-inter=0 / refine-mv=1 / refine-ctu-distortion=0 / no-limit-sao / ctu-info=0 / no-lowpass-dct / refine-analysis-type=0 / copy-pic=1 / max-ausize-factor=1.0 / no-dynamic-refine / no-single-sei / no-hevc-aq / no-svt / no-field / qp-adaptation-range=1.00 / scenecut-aware-qp=0conformance-window-offsets / right=0 / bottom=0 / decoder-max-rate=0 / no-vbv-live-multi-pass
Default : Yes
Forced : No

Audio
ID : 2
Format : FLAC
Format/Info : Free Lossless Audio Codec
Codec ID : A_FLAC
Duration : 1 h 35 min
Bit rate mode : Variable
Bit rate : 212 kb/s
Channel(s) : 1 channel
Channel layout : C
Sampling rate : 48.0 kHz
Frame rate : 11.719 FPS (4096 SPF)
Bit depth : 16 bits
Compression mode : Lossless
Stream size : 146 MiB (2%)
Title : French
Writing library : libFLAC 1.2.1 (UTC 2007-09-17)
Language : French
Default : Yes
Forced : No

Text #1
ID : 3
ID in the original source medium : 4609 (0x1201)
Format : PGS
Muxing mode : zlib
Codec ID : S_HDMV/PGS
Codec ID/Info : Picture based subtitle format used on BDs/HD-DVDs
Duration : 1 h 32 min
Bit rate : 15.8 kb/s
Frame rate : 0.159 FPS
Count of elements : 880
Stream size : 10.4 MiB (0%)
Title : chs&eng
Language : Chinese
Default : Yes
Forced : No
Original source medium : Blu-ray

Text #2
ID : 4
ID in the original source medium : 4610 (0x1202)
Format : PGS
Muxing mode : zlib
Codec ID : S_HDMV/PGS
Codec ID/Info : Picture based subtitle format used on BDs/HD-DVDs
Duration : 1 h 32 min
Bit rate : 15.8 kb/s
Frame rate : 0.159 FPS
Count of elements : 880
Stream size : 10.4 MiB (0%)
Title : cht&eng
Language : Chinese
Default : No
Forced : No
Original source medium : Blu-ray

Text #3
ID : 5
ID in the original source medium : 4611 (0x1203)
Format : PGS
Muxing mode : zlib
Codec ID : S_HDMV/PGS
Codec ID/Info : Picture based subtitle format used on BDs/HD-DVDs
Duration : 1 h 32 min
Bit rate : 9 316 b/s
Frame rate : 0.159 FPS
Count of elements : 880
Stream size : 6.14 MiB (0%)
Title : chs
Language : Chinese
Default : No
Forced : No
Original source medium : Blu-ray

Text #4
ID : 6
ID in the original source medium : 4612 (0x1204)
Format : PGS
Muxing mode : zlib
Codec ID : S_HDMV/PGS
Codec ID/Info : Picture based subtitle format used on BDs/HD-DVDs
Duration : 1 h 32 min
Bit rate : 9 383 b/s
Frame rate : 0.159 FPS
Count of elements : 880
Stream size : 6.18 MiB (0%)
Title : cht
Language : Chinese
Default : No
Forced : No
Original source medium : Blu-ray

Text #5
ID : 7
ID in the original source medium : 4608 (0x1200)
Format : PGS
Muxing mode : zlib
Codec ID : S_HDMV/PGS
Codec ID/Info : Picture based subtitle format used on BDs/HD-DVDs
Duration : 1 h 31 min
Bit rate : 15.3 kb/s
Frame rate : 0.152 FPS
Count of elements : 838
Stream size : 10.0 MiB (0%)
Title : eng
Language : English
Default : No
Forced : No
Original source medium : Blu-ray

Menu
00:00:00.000 : en:Chapter 01
00:02:14.592 : en:Chapter 02
00:06:28.554 : en:Chapter 03
00:11:37.196 : en:Chapter 04
00:13:27.264 : en:Chapter 05
00:16:37.413 : en:Chapter 06
00:19:04.935 : en:Chapter 07
00:22:05.657 : en:Chapter 08
00:27:46.748 : en:Chapter 09
00:33:35.221 : en:Chapter 10
00:38:32.310 : en:Chapter 11
00:43:46.999 : en:Chapter 12
00:50:30.110 : en:Chapter 13
00:55:20.317 : en:Chapter 14
00:58:53.696 : en:Chapter 15
01:05:41.896 : en:Chapter 16
01:09:06.642 : en:Chapter 17
01:16:24.121 : en:Chapter 18
01:18:19.027 : en:Chapter 19
01:21:47.944 : en:Chapter 20
01:24:26.019 : en:Chapter 21
01:28:22.088 : en:Chapter 22
01:32:59.949 : en:Chapter 23


部分资源为软字幕,移动端推荐播放器:MxPlayer,nPlayer,infuse ,其他播放器请自行尝试。

部分资源为软字幕,电脑端推荐播放器:PotPlayer,完美解码,KMPLAYER,其他播放器请自行尝试。



1 个附件 售价 大小 下载 时间

Au.hasard.Balthazar.1966.CC.1080p.BluRay.x265.10bit.FLAC.1.0-SONYHD[1LOU.ME].torrent 0 金币 22.60K 1365 次 2月前

#1楼
发帖时间:2023-12-06 11:47:38   |   回复数:0
游客组