lvchao9947
一代宗师

[更 早] [其它] [剧情] [BD-1080P] 驴子巴特萨[简繁英字幕].Au.hasard.Balthazar.1966.CC.1080p.BluRay.x264.FLAC.1.0-SONYHD 12.78

-->

完整标题:驴子巴特萨[简繁英字幕].Au.hasard.Balthazar.1966.CC.1080p.BluRay.x264.FLAC.1.0-SONYHD 12.78GB



◎标  题 驴子巴特萨
◎译  名 巴尔塔扎尔的遭遇 / 驴子巴勒达扎 / 偶尔巴尔塔扎尔 / Balthazar
◎片  名 Au hasard Balthazar
◎年  代 1966
◎产  地 法国 / 瑞典
◎类  别 剧情
◎语  言 法语 / 拉丁语
◎上映日期 1966-05-15(戛纳电影节) / 1966-05-25(法国)
◎IMDb评分 7.8/10 (21924人评价)
◎IMDb链接 https://www.imdb.com/title/tt0060138/
◎豆瓣评分 8.3/10 (8556人评价)
◎豆瓣链接 https://movie.douban.com/subject/1401619/
◎片  长 95分钟
◎导  演 罗伯特·布列松 Robert Bresson
◎编  剧 罗伯特·布列松 Robert Bresson
◎演  员 安妮·维亚泽姆斯基 Anne Wiazemsky
      Jean-Claude Guilbert Jean-Claude Guilbert
      皮埃尔·克罗索斯基 Pierre Klossowski
      弗朗斯·阿瑟兰 France Asselin

◎简  介
    电影史上极其异类的电影.   全片的主角竟是一头驴。透过驴的眼睛,冷冷地注视着这个世界。驴在不同人的手中被虐待、被贩卖,最终被杀,透露出来的却是同样的主题。

##### MediaInfo ######
General
Unique ID : 291410714157948850073537784322076875758 (0xDB3BA97C30176257C79C5E12C1EE9BEE)
Complete name : Au.hasard.Balthazar.1966.CC.1080p.BluRay.x264.FLAC.1.0-SONYHD.mkv
Duration : 1 h 35 min
Overall bit rate mode : Variable
Overall bit rate : 19.1 Mb/s

Video
ID : 1
Format : AVC
Format/Info : Advanced Video Codec
Format profile : [email protected]
Format settings : CABAC / 4 Ref Frames
Format settings, CABAC : Yes
Format settings, Reference frames : 4 frames
Codec ID : V_MPEG4/ISO/AVC
Duration : 1 h 35 min
Bit rate : 18.8 Mb/s
Width : 1 792 pixels
Height : 1 080 pixels
Display aspect ratio : 5:3
Frame rate mode : Constant
Frame rate : 23.976 (24000/1001) FPS
Color space : YUV
Chroma subsampling : 4:2:0
Bit depth : 8 bits
Scan type : Progressive
Bits/(Pixel*Frame) : 0.406
Stream size : 12.6 GiB (99%)
Writing library : x264 core 164 r3107+55M 1028c06 t_mod_New [(8 & 10)-bit@all X86_64]
Encoding settings : cabac=1 / ref=4 / deblock=1:-3:-3 / analyse=0x3:0x133 / me=umh / subme=11 / psy=1 / fade_compensate=0.00 / psy_rd=1.00:0.00 / mixed_ref=1 / me_range=48 / chroma_me=1 / trellis=2 / 8x8dct=1 / cqm=0 / deadzone=21,11 / fast_pskip=0 / chroma_qp_offset=-3 / threads=34 / lookahead_threads=8 / sliced_threads=0 / nr=0 / decimate=0 / interlaced=0 / bluray_compat=0 / constrained_intra=0 / fgo=0 / bframes=10 / b_pyramid=2 / b_adapt=2 / b_bias=0 / direct=3 / weightb=1 / open_gop=0 / weightp=2 / keyint=240 / keyint_min=1 / scenecut=40 / intra_refresh=0 / rc_lookahead=72 / rc=crf / mbtree=0 / crf=20.5000 / qcomp=0.65 / qpmin=0:0:0 / qpmax=69:69:69 / qpstep=4 / vbv_maxrate=62500 / vbv_bufsize=78125 / crf_max=0.0 / nal_hrd=none / filler=0 / ip_ratio=1.40 / pb_ratio=1.30 / aq=3:0.80 / aq-sensitivity=10.00 / aq-factor=1.00:1.00:1.00 / aq2=0 / aq3=0
Default : Yes
Forced : No

Audio
ID : 2
Format : FLAC
Format/Info : Free Lossless Audio Codec
Codec ID : A_FLAC
Duration : 1 h 35 min
Bit rate mode : Variable
Bit rate : 212 kb/s
Channel(s) : 1 channel
Channel layout : C
Sampling rate : 48.0 kHz
Frame rate : 11.719 FPS (4096 SPF)
Bit depth : 16 bits
Compression mode : Lossless
Stream size : 146 MiB (1%)
Title : French
Writing library : libFLAC 1.2.1 (UTC 2007-09-17)
Language : French
Default : Yes
Forced : No

Text #1
ID : 3
ID in the original source medium : 4609 (0x1201)
Format : PGS
Muxing mode : zlib
Codec ID : S_HDMV/PGS
Codec ID/Info : Picture based subtitle format used on BDs/HD-DVDs
Duration : 1 h 32 min
Bit rate : 15.8 kb/s
Frame rate : 0.159 FPS
Count of elements : 880
Stream size : 10.4 MiB (0%)
Title : chs&eng
Language : Chinese
Default : Yes
Forced : No
Original source medium : Blu-ray

Text #2
ID : 4
ID in the original source medium : 4610 (0x1202)
Format : PGS
Muxing mode : zlib
Codec ID : S_HDMV/PGS
Codec ID/Info : Picture based subtitle format used on BDs/HD-DVDs
Duration : 1 h 32 min
Bit rate : 15.8 kb/s
Frame rate : 0.159 FPS
Count of elements : 880
Stream size : 10.4 MiB (0%)
Title : cht&eng
Language : Chinese
Default : No
Forced : No
Original source medium : Blu-ray

Text #3
ID : 5
ID in the original source medium : 4611 (0x1203)
Format : PGS
Muxing mode : zlib
Codec ID : S_HDMV/PGS
Codec ID/Info : Picture based subtitle format used on BDs/HD-DVDs
Duration : 1 h 32 min
Bit rate : 9 316 b/s
Frame rate : 0.159 FPS
Count of elements : 880
Stream size : 6.14 MiB (0%)
Title : chs
Language : Chinese
Default : No
Forced : No
Original source medium : Blu-ray

Text #4
ID : 6
ID in the original source medium : 4612 (0x1204)
Format : PGS
Muxing mode : zlib
Codec ID : S_HDMV/PGS
Codec ID/Info : Picture based subtitle format used on BDs/HD-DVDs
Duration : 1 h 32 min
Bit rate : 9 383 b/s
Frame rate : 0.159 FPS
Count of elements : 880
Stream size : 6.18 MiB (0%)
Title : cht
Language : Chinese
Default : No
Forced : No
Original source medium : Blu-ray

Text #5
ID : 7
ID in the original source medium : 4608 (0x1200)
Format : PGS
Muxing mode : zlib
Codec ID : S_HDMV/PGS
Codec ID/Info : Picture based subtitle format used on BDs/HD-DVDs
Duration : 1 h 31 min
Bit rate : 15.3 kb/s
Frame rate : 0.152 FPS
Count of elements : 838
Stream size : 10.0 MiB (0%)
Title : eng
Language : English
Default : No
Forced : No
Original source medium : Blu-ray

Menu
00:00:00.000 : en:Chapter 01
00:02:14.592 : en:Chapter 02
00:06:28.554 : en:Chapter 03
00:11:37.196 : en:Chapter 04
00:13:27.264 : en:Chapter 05
00:16:37.413 : en:Chapter 06
00:19:04.935 : en:Chapter 07
00:22:05.657 : en:Chapter 08
00:27:46.748 : en:Chapter 09
00:33:35.221 : en:Chapter 10
00:38:32.310 : en:Chapter 11
00:43:46.999 : en:Chapter 12
00:50:30.110 : en:Chapter 13
00:55:20.317 : en:Chapter 14
00:58:53.696 : en:Chapter 15
01:05:41.896 : en:Chapter 16
01:09:06.642 : en:Chapter 17
01:16:24.121 : en:Chapter 18
01:18:19.027 : en:Chapter 19
01:21:47.944 : en:Chapter 20
01:24:26.019 : en:Chapter 21
01:28:22.088 : en:Chapter 22
01:32:59.949 : en:Chapter 23


部分资源为软字幕,移动端推荐播放器:MxPlayer,nPlayer,infuse ,其他播放器请自行尝试。

部分资源为软字幕,电脑端推荐播放器:PotPlayer,完美解码,KMPLAYER,其他播放器请自行尝试。



1 个附件 售价 大小 下载 时间

Au.hasard.Balthazar.1966.CC.1080p.BluRay.x264.FLAC.1.0-SONYHD[1LOU.ME].torrent 0 金币 34.84K 791 次 2月前

#1楼
发帖时间:2023-12-06 11:47:08   |   回复数:0
游客组