Asuka601
隐世仙人♂

[2023] [大陆] [喜剧] [WEB-4K] 失而复得[高码版][国语配音/中文字幕].Various.Geeks.2023.2160p.HQ.WEB-DL.H265.DDP5.1-DreamHD 13.1

-->

完整标题:失而复得[高码版][国语配音/中文字幕].Various.Geeks.2023.2160p.HQ.WEB-DL.H265.DDP5.1-DreamHD 13.19GB



◎标  题 失而复得
◎译  名 笨蛋都到齐了 / Various Geeks
◎年  代 2023
◎产  地 中国大陆
◎类  别 喜剧 / 悬疑 / 犯罪
◎语  言 汉语普通话
◎上映日期 2023-10-28(中国大陆)
◎IMDb链接 https://www.imdb.com/title/tt29574083/
◎豆瓣链接 https://movie.douban.com/subject/26946520/
◎片  长 91分钟
◎导  演 刘十六 Shiliu Liu
◎编  剧 刘十六 Shiliu Liu
      邵培勋
◎演  员 张亮 Liang Zhang
      辛芷蕾 Zhilei Xin
      大力 Dali Hou
      李易祥 Yixiang Li
      王德顺 Deshun Wang
      韩鹏翼 Pengyi Han
      刘显达 Xianda Liu
      甘昀宸 Yunchen Gan
      王磊 Lei Wang
      王今心 Jinxin Wang
      韩志 Zhi Han
      侯祥 Xiang Hou
      吴樾 Yue Wu
      李诚儒 Chengru Li
      李菁 Jing Li
      刘仪伟 Yiwei Liu
      赵英俊 Yingjun Zhao
      李依铃
      韩兆 Zhao Han
      李彧 Yu Li
      赵韦至 Weizhi Zhao
      王亚楠 Yanan Wang
      樊野 Ye Fan
      李依玲 Yiling Li
      陈婧旸 Jingyang Chen
      蔡心 Xin Cai
      王奕然 Yiran Wang
      李乙平 Yiping Li

◎简  介
    如果有一百万美金放在你面前,你会想要得到它吗?出国归来的张博(张亮 饰)受人之托,要将百万美金送出境,同时青梅竹马的冯乐琪(辛芷蕾 饰)正在竭力调查一起假币案。两人连同各阶层爱财之人,意外卷入百万美金的陷阱中。真真假假的钞票、虚虚实实的情愫,每个人都成了局中人,一场好戏正在上演。

点击图片可查看大图

软字幕无法在截图上展现,HDR版本/杜比视界版本截图会出现颜色异常,请使用支持的设备播放!

##### MediaInfo ######
General
Unique ID : 131246845408505888274143298608682454940 (0x62BD39146BF46DACD8C73CCE485B4F9C)
Complete name : Various.Geeks.2023.2160p.HQ.WEB-DL.H265.DDP5.1-DreamHD.mkv
Duration : 1 h 29 min
Overall bit rate : 21.1 Mb/s

Video
ID : 1
Format : HEVC
Format/Info : High Efficiency Video Coding
Format profile : Main [email protected]@Main
Codec ID : V_MPEGH/ISO/HEVC
Duration : 1 h 29 min
Bit rate : 19.9 Mb/s
Width : 3 840 pixels
Height : 1 616 pixels
Display aspect ratio : 2.40:1
Frame rate mode : Constant
Frame rate : 24.000 FPS
Color space : YUV
Chroma subsampling : 4:2:0
Bit depth : 10 bits
Bits/(Pixel*Frame) : 0.133
Stream size : 12.4 GiB (94%)
Default : Yes
Forced : No
Color range : Limited
Color primaries : BT.709
Transfer characteristics : BT.709
Matrix coefficients : BT.709

Audio #1
ID : 2
Format : E-AC-3
Format/Info : Enhanced AC-3
Commercial name : Dolby Digital Plus
Codec ID : A_EAC3
Duration : 1 h 29 min
Bit rate mode : Constant
Bit rate : 448 kb/s
Channel(s) : 6 channels
Channel layout : L R C LFE Ls Rs
Sampling rate : 48.0 kHz
Frame rate : 31.250 FPS (1536 SPF)
Compression mode : Lossy
Stream size : 287 MiB (2%)
Title : Mandarin [DDP5.1]
Language : Chinese
Service kind : Complete Main
Default : Yes
Forced : No

Audio #2
ID : 3
Format : E-AC-3
Format/Info : Enhanced AC-3
Commercial name : Dolby Digital Plus
Codec ID : A_EAC3
Duration : 1 h 29 min
Bit rate mode : Constant
Bit rate : 256 kb/s
Channel(s) : 6 channels
Channel layout : L R C LFE Ls Rs
Sampling rate : 48.0 kHz
Frame rate : 31.250 FPS (1536 SPF)
Compression mode : Lossy
Stream size : 164 MiB (1%)
Title : Mandarin [DDP5.1]
Language : Chinese
Service kind : Complete Main
Default : No
Forced : No

Audio #3
ID : 4
Format : E-AC-3
Format/Info : Enhanced AC-3
Commercial name : Dolby Digital Plus
Codec ID : A_EAC3
Duration : 1 h 29 min
Bit rate mode : Constant
Bit rate : 256 kb/s
Channel(s) : 2 channels
Channel layout : L R
Sampling rate : 48.0 kHz
Frame rate : 31.250 FPS (1536 SPF)
Bit depth : 32 bits
Compression mode : Lossy
Stream size : 164 MiB (1%)
Title : Mandarin [DDP2.0]
Language : Chinese
Service kind : Complete Main
Default : No
Forced : No

Audio #4
ID : 5
Format : AAC LC
Format/Info : Advanced Audio Codec Low Complexity
Codec ID : A_AAC-2
Duration : 1 h 29 min
Bit rate : 256 kb/s
Channel(s) : 2 channels
Channel layout : L R
Sampling rate : 44.1 kHz
Frame rate : 43.066 FPS (1024 SPF)
Compression mode : Lossy
Stream size : 164 MiB (1%)
Title : Mandarin [AAC2.0]
Language : Chinese
Default : No
Forced : No


部分资源为软字幕,移动端推荐播放器:MxPlayer,nPlayer,infuse ,其他播放器请自行尝试。

部分资源为软字幕,电脑端推荐播放器:PotPlayer,完美解码,KMPLAYER,其他播放器请自行尝试。



1 个附件 售价 大小 下载 时间

Various.Geeks.2023.2160p.HQ.WEB-DL.H265.DDP5.1-DreamHD[1LOU.ME].torrent 0 金币 35.87K 3955 次 2月前

#1楼
发帖时间:2023-12-05 23:52:35   |   回复数:0
游客组