fg603603
一代宗师

[更 早] [日本] [剧情] [WEB-1080P] 沉默的女孩 The.Girl.of.Silence.1995.JAPANESE.1080p.AMZN.WEBRip.DDP5.1.x264-NOGRP 5.95

-->

帖子完整标题:沉默的女孩 The.Girl.of.Silence.1995.JAPANESE.1080p.AMZN.WEBRip.DDP5.1.x264-NOGRP 5.95GB



◎标  题 沉默的女孩
◎译  名 Fatherfucker
◎片  名 ファザーファッカー
◎年  代 1995
◎产  地 日本
◎类  别 剧情
◎语  言 日语
◎上映日期 1995-06-17
◎IMDb评分 5.8/10 (25人评价)
◎IMDb链接 https://www.imdb.com/title/tt0113174/
◎豆瓣链接 https://movie.douban.com/subject/5110767/
◎片  长 90 分钟
◎导  演 荒户源次郎 Genjiro Arato
◎编  剧 内田春菊 Shungiku Uchida
◎演  员 原田芳雄 Yoshio Harada
      秋山道男 Michio Akiyama
      金子贤 Ken Kaneko
      中村麻美 Mami Nakamura
      桃井薰 Kaori Momoi
      山下洋辅 Yosuke Yamashita
      芦泽明子 Akiko Ashizawa
      铃木晄 Akira Suzuki
      堀口正树 Masaki Horiguchi

◎简  介
  1968年夏、長崎。中学三年生の田中静子は、漫画家を目指している聡明で夢見がちな14歳の少女である。静子の家庭は、キャバレー勤めの母・明美、小学生の妹・知恵の三人で貧しく暮らしている。静子が唯一慕っていた父・静男は、三年前に家族を捨てて家を出た。とある暑い午後、母の愛人である斎藤良次が新しい冷蔵庫とともに突然田中家にやって来た。「これからあんたたちのお父さんになる人よ」と母は喜ぶが、自分を“お父さま”と呼ばせ、礼儀作法に狂的にうるさく、好きな漫画を描くことを禁じる強権的な良次の存在は、静子にはうとましいだけであった。しかもこの新しい義父は、週に二、三度しか家に来ない。つまりこのウチは“2号”の家なのであった。そして、来る度に女性らしさを帯びてきた静子のカラダをなめまわすように見つめる義父の視線が、静子には耐え難かった。静子には同級生のボーイフレンド・...

Video
ID : 1
Format : AVC
Format/Info : Advanced Video Codec
Format profile : [email protected]
Format settings : CABAC / 4 Ref Frames
Format settings, CABAC : Yes
Format settings, Reference frames : 4 frames
Codec ID : V_MPEG4/ISO/AVC
Duration : 1 h 30 min
Bit rate mode : Constant
Bit rate : 9 182 kb/s
Nominal bit rate : 10 000 kb/s
Width : 1 920 pixels
Height : 1 040 pixels
Display aspect ratio : 1.85:1
Frame rate mode : Constant
Frame rate : 23.976 (24000/1001/189150) FPS
Color space : YUV
Chroma subsampling : 4:2:0
Bit depth : 8 bits
Scan type : Progressive
Bits/(Pixel*Frame) : 0.192
Stream size : 5.81 GiB (98%)
Default : Yes
Forced : No
Color range : Limited
Color primaries : BT.709
Transfer characteristics : BT.709
Matrix coefficients : BT.709

Audio
ID : 2
Format : E-AC-3
Format/Info : Enhanced AC-3
Commercial name : Dolby Digital Plus
Codec ID : A_EAC3
Duration : 1 h 30 min
Bit rate mode : Constant
Bit rate : 224 kb/s
Channel(s) : 2 channels
Channel layout : L R
Sampling rate : 48.0 kHz
Frame rate : 31.250 FPS (1536 SPF)
Compression mode : Lossy
Language: Japanese
Stream size : 145 MiB (2%)
Service kind : Complete Main
Default : Yes
Forced : No

Text
ID : 3
Format : UTF-8
Codec ID : S_TEXT/UTF8
Codec ID/Info : UTF-8 Plain Text
Duration : 1 h 25 min
Bit rate : 22 b/s
Frame rate : 0.089 FPS
Count of elements : 455
Stream size : 14.2 KiB (0%)
Language : English
Default : No
Forced : No





1 个附件 售价 大小 下载 时间

The.Girl.of.Silence.1995.JAPANESE.1080p.AMZN.WEBRip.DDP5.1.x264-NOGRP.torrent 0 金币 15.54K 952 次 2月前

#1楼
发帖时间:2022-12-01 10:02:01   |   回复数:0
游客组