fg603603
一代宗师

[2019] [其它] [剧情] [BD-4K] 十七岁 Seventeen.2019.SPANISH.2160p.NF.WEB-DL.x265.10bit.SDR.DDP5.1-SMURF 8.63GB

-->

帖子完整标题:十七岁 Seventeen.2019.SPANISH.2160p.NF.WEB-DL.x265.10bit.SDR.DDP5.1-SMURF 8.63GB



◎标  题 十七岁
◎译  名 年少十七(台) / 十八减一(港) / Seventeen
◎片  名 Diecisiete
◎年  代 2019
◎产  地 西班牙
◎类  别 剧情
◎语  言 西班牙语
◎上映日期 2019-09-27(圣塞瓦斯蒂安国际电影节) / 2019-10-18(西班牙)
◎IMDb评分 7.2/10 (3815人评价)
◎IMDb链接 https://www.imdb.com/title/tt8988748/
◎豆瓣评分 7.8/10 (2197人评价)
◎豆瓣链接 https://movie.douban.com/subject/33399850/
◎片  长 99分钟
◎导  演 丹尼尔·桑切斯·阿雷瓦洛 Daniel Sánchez Arévalo
◎编  剧 丹尼尔·桑切斯·阿雷瓦洛 Daniel Sánchez Arévalo
      阿拉西里·桑切斯 Araceli Sánchez
◎演  员 贝尔·蒙特罗 Biel Montoro
      纳乔·桑切斯 Nacho Sánchez
      萝拉·柯顿 Lola Cordón
      伊萨索·阿拉纳 Itsaso Arana
      查尼·马丁 Chani Martín
      伊尼戈·阿兰布鲁 Iñigo Aranburu
      坎迪多·乌兰加 Kandido Uranga
      哈维尔·西弗里安 Javier Cifrián
      玛门·迪什 Mamen Duch
      卡罗莱纳·克莱门特 Carolina Clemente
      豪尔赫·卡布雷拉 Jorge Cabrera
      丹尼尔·福斯特 Daniel Fuster
      埃德加·科斯塔斯 Edgar Costas
      帕塔西·桑塔尔亚 Patxi Santamaría
      塞尔吉奥·佩尼亚 Sergio Peña
      维克托·古铁雷斯 Víctor Gutiérrez
      迭戈·莫莱罗 Diego Molero

◎标  签 西班牙 / 治愈 / 公路 / 成长 / 剧情 / 感人 / 亲情 / 2019

◎简  介
    17 岁的埃克托尔与一只像他一样胆小、冷淡的小狗建立了牢不可破的友谊,这是少年感化院重返社会计划的一部分。小狗被领养后,伤心不已的埃克托尔逃出去寻找它,并在哥哥伊斯梅尔、奶奶库卡、两只小狗、一头牛和其他动物的陪伴下踏上了一段非凡的旅程。

Video
ID : 1
Format : HEVC
Format/Info : High Efficiency Video Coding
Format profile : Main [email protected]@Main
Codec ID : V_MPEGH/ISO/HEVC
Duration : 1 h 39 min
Bit rate : 11.7 Mb/s
Width : 3 840 pixels
Height : 2 160 pixels
Display aspect ratio : 16:9
Frame rate mode : Constant
Frame rate : 25.000 FPS
Color space : YUV
Chroma subsampling : 4:2:0
Bit depth : 10 bits
Bits/(Pixel*Frame) : 0.057
Stream size : 8.18 GiB (95%)
Language : Spanish
Default : Yes
Forced : No
Color range : Limited
Color primaries : BT.709
Transfer characteristics : BT.709
Matrix coefficients : BT.709

Audio
ID : 2
Format : E-AC-3
Format/Info : Enhanced AC-3
Commercial name : Dolby Digital Plus
Codec ID : A_EAC3
Duration : 1 h 39 min
Bit rate mode : Constant
Bit rate : 640 kb/s
Channel(s) : 6 channels
Channel layout : L R C LFE Ls Rs
Sampling rate : 48.0 kHz
Frame rate : 31.250 FPS (1536 SPF)
Compression mode : Lossy
Stream size : 457 MiB (5%)
Language : Spanish
Service kind : Complete Main
Default : Yes
Forced : No

Text #1
ID : 3
Format : UTF-8
Codec ID : S_TEXT/UTF8
Codec ID/Info : UTF-8 Plain Text
Duration : 1 h 36 min
Bit rate : 68 b/s
Frame rate : 0.221 FPS
Count of elements : 1283
Stream size : 48.5 KiB (0%)
Language : Spanish
Default : No
Forced : No

Text #2
ID : 4
Format : UTF-8
Codec ID : S_TEXT/UTF8
Codec ID/Info : UTF-8 Plain Text
Duration : 1 h 36 min
Bit rate : 71 b/s
Frame rate : 0.236 FPS
Count of elements : 1373
Stream size : 50.6 KiB (0%)
Title : SDH
Language : Spanish
Default : No
Forced : No

Text #3
ID : 5
Format : UTF-8
Codec ID : S_TEXT/UTF8
Codec ID/Info : UTF-8 Plain Text
Duration : 1 h 39 min
Bit rate : 101 b/s
Frame rate : 0.230 FPS
Count of elements : 1368
Stream size : 73.5 KiB (0%)
Language : Arabic
Default : No
Forced : No

Text #4
ID : 6
Format : UTF-8
Codec ID : S_TEXT/UTF8
Codec ID/Info : UTF-8 Plain Text
Duration : 1 h 39 min
Bit rate : 53 b/s
Frame rate : 0.228 FPS
Count of elements : 1361
Stream size : 38.8 KiB (0%)
Language : Czech
Default : No
Forced : No

Text #5
ID : 7
Format : UTF-8
Codec ID : S_TEXT/UTF8
Codec ID/Info : UTF-8 Plain Text
Duration : 1 h 36 min
Bit rate : 57 b/s
Frame rate : 0.223 FPS
Count of elements : 1295
Stream size : 40.7 KiB (0%)
Language : Danish
Default : No
Forced : No

Text #6
ID : 8
Format : UTF-8
Codec ID : S_TEXT/UTF8
Codec ID/Info : UTF-8 Plain Text
Duration : 1 h 36 min
Bit rate : 52 b/s
Frame rate : 0.235 FPS
Count of elements : 1366
Stream size : 37.6 KiB (0%)
Language : German
Default : No
Forced : No

Text #7
ID : 9
Format : UTF-8
Codec ID : S_TEXT/UTF8
Codec ID/Info : UTF-8 Plain Text
Duration : 1 h 36 min
Bit rate : 98 b/s
Frame rate : 0.212 FPS
Count of elements : 1229
Stream size : 70.1 KiB (0%)
Language : Greek
Default : No
Forced : No

Text #8
ID : 10
Format : UTF-8
Codec ID : S_TEXT/UTF8
Codec ID/Info : UTF-8 Plain Text
Duration : 1 h 35 min
Bit rate : 60 b/s
Frame rate : 0.243 FPS
Count of elements : 1391
Stream size : 42.0 KiB (0%)
Language : English
Default : No
Forced : No

Text #9
ID : 11
Format : UTF-8
Codec ID : S_TEXT/UTF8
Codec ID/Info : UTF-8 Plain Text
Duration : 1 h 36 min
Bit rate : 65 b/s
Frame rate : 0.261 FPS
Count of elements : 1512
Stream size : 46.1 KiB (0%)
Title : SDH
Language : English
Default : No
Forced : No

Text #10
ID : 12
Format : UTF-8
Codec ID : S_TEXT/UTF8
Codec ID/Info : UTF-8 Plain Text
Duration : 1 h 39 min
Bit rate : 48 b/s
Frame rate : 0.210 FPS
Count of elements : 1252
Stream size : 35.3 KiB (0%)
Language : Finnish
Default : No
Forced : No

Text #11
ID : 13
Format : UTF-8
Codec ID : S_TEXT/UTF8
Codec ID/Info : UTF-8 Plain Text
Duration : 1 h 39 min
Bit rate : 51 b/s
Frame rate : 0.229 FPS
Count of elements : 1365
Stream size : 37.7 KiB (0%)
Language : French
Default : No
Forced : No

Text #12
ID : 14
Format : UTF-8
Codec ID : S_TEXT/UTF8
Codec ID/Info : UTF-8 Plain Text
Duration : 1 h 36 min
Bit rate : 91 b/s
Frame rate : 0.232 FPS
Count of elements : 1350
Stream size : 64.8 KiB (0%)
Language : Hebrew
Default : No
Forced : No

Text #13
ID : 15
Format : UTF-8
Codec ID : S_TEXT/UTF8
Codec ID/Info : UTF-8 Plain Text
Duration : 1 h 36 min
Bit rate : 165 b/s
Frame rate : 0.237 FPS
Count of elements : 1375
Stream size : 117 KiB (0%)
Language : Hindi
Default : No
Forced : No

Text #14
ID : 16
Format : UTF-8
Codec ID : S_TEXT/UTF8
Codec ID/Info : UTF-8 Plain Text
Duration : 1 h 36 min
Bit rate : 55 b/s
Frame rate : 0.234 FPS
Count of elements : 1361
Stream size : 39.5 KiB (0%)
Language : Hungarian
Default : No
Forced : No

Text #15
ID : 17
Format : UTF-8
Codec ID : S_TEXT/UTF8
Codec ID/Info : UTF-8 Plain Text
Duration : 1 h 39 min
Bit rate : 54 b/s
Frame rate : 0.230 FPS
Count of elements : 1369
Stream size : 39.9 KiB (0%)
Language : Indonesian
Default : No
Forced : No

Text #16
ID : 18
Format : UTF-8
Codec ID : S_TEXT/UTF8
Codec ID/Info : UTF-8 Plain Text
Duration : 1 h 36 min
Bit rate : 53 b/s
Frame rate : 0.235 FPS
Count of elements : 1365
Stream size : 37.7 KiB (0%)
Language : Italian
Default : No
Forced : No

Text #17
ID : 19
Format : UTF-8
Codec ID : S_TEXT/UTF8
Codec ID/Info : UTF-8 Plain Text
Duration : 1 h 39 min
Bit rate : 50 b/s
Frame rate : 0.211 FPS
Count of elements : 1255
Stream size : 36.7 KiB (0%)
Language : Japanese
Default : No
Forced : No

Text #18
ID : 20
Format : UTF-8
Codec ID : S_TEXT/UTF8
Codec ID/Info : UTF-8 Plain Text
Duration : 1 h 39 min
Bit rate : 69 b/s
Frame rate : 0.230 FPS
Count of elements : 1372
Stream size : 50.9 KiB (0%)
Language : Korean
Default : No
Forced : No

Text #19
ID : 21
Format : UTF-8
Codec ID : S_TEXT/UTF8
Codec ID/Info : UTF-8 Plain Text
Duration : 1 h 36 min
Bit rate : 57 b/s
Frame rate : 0.218 FPS
Count of elements : 1267
Stream size : 40.7 KiB (0%)
Language : Norwegian Bokmal
Default : No
Forced : No

Text #20
ID : 22
Format : UTF-8
Codec ID : S_TEXT/UTF8
Codec ID/Info : UTF-8 Plain Text
Duration : 1 h 39 min
Bit rate : 53 b/s
Frame rate : 0.176 FPS
Count of elements : 1051
Stream size : 39.1 KiB (0%)
Language : Dutch
Default : No
Forced : No

Text #21
ID : 23
Format : UTF-8
Codec ID : S_TEXT/UTF8
Codec ID/Info : UTF-8 Plain Text
Duration : 1 h 36 min
Bit rate : 51 b/s
Frame rate : 0.233 FPS
Count of elements : 1355
Stream size : 36.3 KiB (0%)
Language : Polish
Default : No
Forced : No

Text #22
ID : 24
Format : UTF-8
Codec ID : S_TEXT/UTF8
Codec ID/Info : UTF-8 Plain Text
Duration : 1 h 39 min
Bit rate : 52 b/s
Frame rate : 0.229 FPS
Count of elements : 1366
Stream size : 38.2 KiB (0%)
Title : Brazilian
Language : Portuguese
Default : No
Forced : No

Text #23
ID : 25
Format : UTF-8
Codec ID : S_TEXT/UTF8
Codec ID/Info : UTF-8 Plain Text
Duration : 1 h 36 min
Bit rate : 57 b/s
Frame rate : 0.235 FPS
Count of elements : 1367
Stream size : 40.7 KiB (0%)
Language : Portuguese
Default : No
Forced : No

Text #24
ID : 26
Format : UTF-8
Codec ID : S_TEXT/UTF8
Codec ID/Info : UTF-8 Plain Text
Duration : 1 h 39 min
Bit rate : 59 b/s
Frame rate : 0.225 FPS
Count of elements : 1341
Stream size : 43.0 KiB (0%)
Language : Romanian
Default : No
Forced : No

Text #25
ID : 27
Format : UTF-8
Codec ID : S_TEXT/UTF8
Codec ID/Info : UTF-8 Plain Text
Duration : 1 h 39 min
Bit rate : 85 b/s
Frame rate : 0.224 FPS
Count of elements : 1336
Stream size : 62.5 KiB (0%)
Language : Russian
Default : No
Forced : No

Text #26
ID : 28
Format : UTF-8
Codec ID : S_TEXT/UTF8
Codec ID/Info : UTF-8 Plain Text
Duration : 1 h 39 min
Bit rate : 57 b/s
Frame rate : 0.203 FPS
Count of elements : 1211
Stream size : 41.5 KiB (0%)
Language : Swedish
Default : No
Forced : No

Text #27
ID : 29
Format : UTF-8
Codec ID : S_TEXT/UTF8
Codec ID/Info : UTF-8 Plain Text
Duration : 1 h 39 min
Bit rate : 140 b/s
Frame rate : 0.230 FPS
Count of elements : 1371
Stream size : 102 KiB (0%)
Language : Thai
Default : No
Forced : No

Text #28
ID : 30
Format : UTF-8
Codec ID : S_TEXT/UTF8
Codec ID/Info : UTF-8 Plain Text
Duration : 1 h 36 min
Bit rate : 56 b/s
Frame rate : 0.224 FPS
Count of elements : 1303
Stream size : 39.8 KiB (0%)
Language : Turkish
Default : No
Forced : No

Text #29
ID : 31
Format : UTF-8
Codec ID : S_TEXT/UTF8
Codec ID/Info : UTF-8 Plain Text
Duration : 1 h 36 min
Bit rate : 74 b/s
Frame rate : 0.235 FPS
Count of elements : 1368
Stream size : 52.7 KiB (0%)
Language : Vietnamese
Default : No
Forced : No

Text #30
ID : 32
Format : UTF-8
Codec ID : S_TEXT/UTF8
Codec ID/Info : UTF-8 Plain Text
Duration : 1 h 39 min
Bit rate : 63 b/s
Frame rate : 0.230 FPS
Count of elements : 1370
Stream size : 46.5 KiB (0%)
Title : Simplified
Language : Chinese
Default : No
Forced : No

Text #31
ID : 33
Format : UTF-8
Codec ID : S_TEXT/UTF8
Codec ID/Info : UTF-8 Plain Text
Duration : 1 h 36 min
Bit rate : 61 b/s
Frame rate : 0.238 FPS
Count of elements : 1383
Stream size : 43.3 KiB (0%)
Title : Traditional
Language : Chinese
Default : No
Forced : No

Menu
01:37:04.000 : en:End Credits




#1楼
发帖时间:2022-12-01 09:59:09   |   回复数:0
游客组