squallzhao
一代宗师

[2022] [欧美] [剧情] [BD-720P] 狂情攀峰 Summit.Fever.2022.720p.BluRay.x264-WoAT 4.36GB

-->

帖子完整标题:狂情攀峰 Summit.Fever.2022.720p.BluRay.x264-WoAT 4.36GB



◎标  题 狂情攀峰
◎译  名 攀登新高峰 / 狂情攀登
◎片  名 Summit Fever
◎年  代 2022
◎产  地 英国
◎类  别 剧情
◎语  言 英语
◎IMDb链接 https://www.imdb.com/title/tt8514848/
◎豆瓣链接 https://movie.douban.com/subject/30421362/
◎演  员 弗莱迪·索普 Freddie Thorp

◎简  介
  A young climber spends a hedonistic summer in Chamonix whilst attempting the world's deadliest trio of mountains.

Video
ID : 1
Format : AVC
Format/Info : Advanced Video Codec
Format profile : [email protected]
Format settings : CABAC / 8 Ref Frames
Format settings, CABAC : Yes
Format settings, Reference frames : 8 frames
Codec ID : V_MPEG4/ISO/AVC
Duration : 1 h 55 min
Bit rate : 4 750 kb/s
Width : 1 280 pixels
Height : 720 pixels
Display aspect ratio : 16:9
Frame rate mode : Constant
Frame rate : 23.976 (24000/1001/189150) FPS
Color space : YUV
Chroma subsampling : 4:2:0
Bit depth : 8 bits
Scan type : Progressive
Bits/(Pixel*Frame) : 0.215
Stream size : 3.83 GiB (88%)
Writing library : x264 core 164 r3101 b093bbe
Encoding settings : cabac=1 / ref=8 / deblock=1:-3:-3 / analyse=0x3:0x133 / me=umh / subme=9 / psy=1 / psy_rd=1.00:0.00 / mixed_ref=1 / me_range=32 / chroma_me=1 / trellis=2 / 8x8dct=1 / cqm=0 / deadzone=21,11 / fast_pskip=0 / chroma_qp_offset=-2 / threads=22 / lookahead_threads=3 / sliced_threads=0 / nr=0 / decimate=0 / interlaced=0 / bluray_compat=0 / constrained_intra=0 / bframes=9 / b_pyramid=2 / b_adapt=2 / b_bias=0 / direct=3 / weightb=1 / open_gop=0 / weightp=2 / keyint=250 / keyint_min=23 / scenecut=40 / intra_refresh=0 / rc=crf / mbtree=0 / crf=19.3 / qcomp=0.60 / qpmin=0 / qpmax=69 / qpstep=4 / ip_ratio=1.40 / pb_ratio=1.30 / aq=3:0.88
Default : Yes
Forced : No
Color range : Limited
Matrix coefficients : BT.709

Audio
ID : 2
Format : AC-3
Format/Info : Audio Coding 3
Commercial name : Dolby Digital
Codec ID : A_AC3
Duration : 1 h 55 min
Bit rate mode : Constant
Bit rate : 640 kb/s
Channel(s) : 6 channels
Channel layout : L R C LFE Ls Rs
Sampling rate : 48.0 kHz
Frame rate : 31.250 FPS (1536 SPF)
Compression mode : Lossy
Stream size : 529 MiB (12%)
Title : English
Language : English
Service kind : Complete Main
Default : No
Forced : No

Text
ID : 3
Format : PGS
Muxing mode : zlib
Codec ID : S_HDMV/PGS
Codec ID/Info : Picture based subtitle format used on BDs/HD-DVDs
Duration : 1 h 54 min
Bit rate : 21.3 kb/s
Count of elements : 2008
Stream size : 17.4 MiB (0%)
Title : Dutch
Language : Dutch
Default : No
Forced : No

Menu
00:00:00.000 : en:Chapter 01
00:08:31.970 : en:Chapter 02
00:21:12.104 : en:Chapter 03
00:35:22.954 : en:Chapter 04
00:47:10.953 : en:Chapter 05
01:09:46.474 : en:Chapter 06
01:25:44.723 : en:Chapter 07
01:41:06.477 : en:Chapter 08
01:51:33.145 : en:Chapter 09





2 个附件 售价 大小 下载 时间

Summit.Fever.2022.720p.BluRay.x264-WoAT.torrent 0 金币 22.47K 672 次 2月前

Summit.Fever.2022.1080p.BluRay.x264-WoAT.torrent 0 金币 14.78K 301 次 2月前

#1楼
发帖时间:2022-12-01 08:47:37   |   回复数:0
游客组